The Manxman (Alfred Hitchcock, 1929) WebDLRip 720p VOSE

El maravilloso mundo del cine silente.
Hasta 1936 inclusive (<= 1936)

Moderador: Monsieur Lange

Reino Unido The Manxman (Alfred Hitchcock, 1929) WebDLRip 720p VOSE

Notapor fifole » 19 Dic 2017, 15:02

THE MANXMAN
(1929)


Imagen

IMDb


Producción
British International Pictures

Director
Alfred Hitchcock

Guión
Eliot Stannard

Argumento
La novela de
Sir Hall Caine

Intérpretes
Carl Brisson
Malcolm Keen
Anny Ondra
Randle Ayrton
Clare Greet
Wilfred Shine
Nellie Richards


Pete Quilliam (Carl Brisson) es pescador, y su gran amigo desde la infancia, Philip Christian (Malcom Keen), quien ahora ejerce como abogado, viajan a la Isla de Man, donde Philip ha conseguido empleo a su amigo. La hija del empleador es una preciosa chica llamada Kate Cregeen (Anny Ondra) y, al conocerla, ambos amigos quedan prendados de ella, pero ante la efusividad y la atención que ella le presta a Pete, el abogado decide guardar prudente distancia dispuesto a ver qué ocurre entre ellos. Pero pronto el destino hará que Pete y Kate se separen durante un tiempo... y entonces, el joven pide a su amigo que cuide de su prometida hasta su regreso. (FILMAFFINITY)


Ripeo procedente de Rutracker.


Imagen



The Manxman se parece de una forma impresionante a Sunrise, de Murnau, por el uso de los interiores y de los exteriores naturales, por la historia que cuenta, por el melodrama que presenta, por el ambiente en el que se desarrolla. En ambos casos los protagonistas están ligados al mundo de los pescadores y la trama se refiere a una pareja puesta en crisis por la formación de un triángulo sentimental: un hombre y dos mujeres en la película de Murnau, una mujer y dos hombres en la de Hitchcock. Pero la semejanza más significativa consiste en el hecho de que en las dos películas la presencia del mar, del viento y de las corrientes marinas determina el destino de los hombres. El abuso de la analogía conduce siempre a demostraciones, pero en este caso nos encontramos ante una auténtica serie de homologías estructurales que hacen sustancialmente similares los desarrollos de los dos relatos. Pero, en el caso de The Manxman y Sunrise, encontrar las identidades sirve para establecer mejor las diferencias. Cuanto mayor es el número de elementos que las dos películas parecen tener en común, tanto más resulta sutil pero esencial lo que las distingue. Frutos tardíos del expresionismo alemán, mezclados ambos en diversa forma con la lección de Griffith que hace menos evidente su origen, The Manxman y Sunrise señalan la toma de posesión del mundo por parte de las imágenes. La realidad está como disuelta en las imágenes, perdiendo todo poder de ejercer un dominio sobre ellas.
Enzo Ungari



Imagen


Datos técnicos:
Código: Seleccionar todo
General
Complete name               : The Manxman 1929 720p WEB-DL AAC2.0 H.264-brento.mkv
Format                      : Matroska
Format version              : Version 4 / Version 2
File size                   : 2.55 GiB
Duration                    : 1 h 23 min
Overall bit rate            : 4 376 kb/s
Encoded date                : UTC 2017-12-08 08:33:58
Writing application         : mkvmerge v13.0.0 ('The Juggler') 32bit
Writing library             : libebml v1.3.4 + libmatroska v1.4.5
Cover                       : Yes
Attachments                 : cover.jpg

Video
ID                          : 1
Format                      : AVC
Format/Info                 : Advanced Video Codec
Format profile              : Main@L3.1
Format settings, CABAC      : No
Format settings, RefFrames  : 2 frames
Codec ID                    : V_MPEG4/ISO/AVC
Duration                    : 1 h 23 min
Bit rate                    : 3 993 kb/s
Width                       : 910 pixels
Height                      : 720 pixels
Display aspect ratio        : 5:4
Frame rate mode             : Constant
Frame rate                  : 23.976 (23976/1000) FPS
Color space                 : YUV
Chroma subsampling          : 4:2:0
Bit depth                   : 8 bits
Scan type                   : Progressive
Bits/(Pixel*Frame)          : 0.254
Stream size                 : 2.33 GiB (91%)
Language                    : English
Default                     : Yes
Forced                      : No
Color range                 : Limited
Color primaries             : BT.709
Transfer characteristics    : BT.709
Matrix coefficients         : BT.709

Audio #1
ID                          : 2
Format                      : AAC
Format/Info                 : Advanced Audio Codec
Format profile              : LC
Codec ID                    : A_AAC
Duration                    : 1 h 23 min
Bit rate                    : 157 kb/s
Channel(s)                  : 2 channels
Channel positions           : Front: L R
Sampling rate               : 48.0 kHz
Frame rate                  : 46.875 FPS (1024 SPF)
Compression mode            : Lossy
Stream size                 : 93.6 MiB (4%)
Title                       : Piano accompaniment (iTunes)
Language                    : English
Default                     : Yes
Forced                      : No

Audio #2
ID                          : 3
Format                      : AC-3
Format/Info                 : Audio Coding 3
Format settings, Endianness : Big
Codec ID                    : A_AC3
Duration                    : 1 h 23 min
Bit rate mode               : Constant
Bit rate                    : 224 kb/s
Channel(s)                  : 2 channels
Channel positions           : Front: L R
Sampling rate               : 48.0 kHz
Frame rate                  : 31.250 FPS (1536 SPF)
Bit depth                   : 16 bits
Compression mode            : Lossy
Stream size                 : 134 MiB (5%)
Title                       : Piano accompaniment (DVD)
Service kind                : Complete Main
Default                     : No
Forced                      : No

Menu
00:00:00.000                : en:1
00:08:25.000                : en:2
00:17:29.000                : en:3
00:25:04.000                : en:4
00:36:10.000                : en:5
00:44:34.000                : en:6
00:53:04.000                : en:7
01:03:16.000                : en:8
01:12:17.000                : en:9
01:21:41.000                : en:10



Imagen
Imagen
Imagen
Imagen
Imagen


eD2K link The Manxman 1929 720p WEB-DL AAC2.0 H.264-brento.mkv [2.55 Gb] 

Subtítulos en español subidos por lapaterna:
https://www.subdivx.com/X6XMzQxMDczX


Mira en youtube.com
Avatar de Usuario
fifole
 
Mensajes: 3052
Temas: 558
Registrado: 17 Oct 2012, 18:47

Re: The Manxman (Alfred Hitchcock, 1929) WebDLRip 720p VOSE

Notapor ethanedwards » 19 Dic 2017, 15:22

Maravillosa labor de recuperación del legado de Alfred Hitchcock en los inicios de su carrera. Todo un acierto. Mil gracias.
ethanedwards
 
Mensajes: 20
Registrado: 14 Nov 2012, 15:09

Re: The Manxman (Alfred Hitchcock, 1929) WebDLRip 720p VOSE

Notapor Bigford » 19 Dic 2017, 18:04

Qué maravilla todos estos Hitch y en esta calidad superior, gracias!
Bigford
 
Mensajes: 229
Registrado: 20 Abr 2015, 19:06

Re: The Manxman (Alfred Hitchcock, 1929) WebDLRip 720p VOSE

Notapor Arthur James Hamp » 19 Dic 2017, 18:19

Muchas gracias fifole y lapaterna. :aplauso: :aplauso:
"Cuando tu cabeza dice una cosa y toda tu vida dice la otra, la cabeza siempre pierde" (Cayo Largo)
Avatar de Usuario
Arthur James Hamp
 
Mensajes: 905
Temas: 103
Registrado: 06 May 2016, 09:47

Re: The Manxman (Alfred Hitchcock, 1929) WebDLRip 720p VOSE

Notapor tonapar1 » 19 Dic 2017, 18:36

Muchas gracias por el ripeo y los subs a fifole y a lapaterna. Un saludo a ambos.
Avatar de Usuario
tonapar1
 
Mensajes: 2597
Registrado: 16 Oct 2012, 18:19

Re: The Manxman (Alfred Hitchcock, 1929) WebDLRip 720p VOSE

Notapor Prudencio » 19 Dic 2017, 18:59

Renovando copia.
Muchas gracias, fifole y lapaterna. :hi:
Avatar de Usuario
Prudencio
 
Mensajes: 3050
Temas: 5
Registrado: 16 Oct 2012, 16:46

Re: The Manxman (Alfred Hitchcock, 1929) WebDLRip 720p VOSE

Notapor yojimbo » 19 Dic 2017, 20:52

Muchas gracias, fifole y lapaterna.
Avatar de Usuario
yojimbo
 
Mensajes: 6797
Temas: 17
Registrado: 18 Oct 2012, 12:25

Re: The Manxman (Alfred Hitchcock, 1929) WebDLRip 720p VOSE

Notapor jaumeroc » 19 Dic 2017, 21:03

Muchas gracias.
jaumeroc
 
Mensajes: 6
Registrado: 29 Nov 2017, 15:49

Re: The Manxman (Alfred Hitchcock, 1929) WebDLRip 720p VOSE

Notapor xeneise007 » 20 Dic 2017, 04:47

Gracias Fifole, otra mas para la colección. :aplauso: :aplauso:
xeneise007
 
Mensajes: 632
Registrado: 08 Ene 2013, 11:19
Ubicación: Reino de Aragón

Re: The Manxman (Alfred Hitchcock, 1929) WebDLRip 720p VOSE

Notapor jail » 20 Dic 2017, 12:29

Gracias, fifole y lapaterna. ¡Qué maravilla!
jail
 
Mensajes: 4162
Temas: 6
Registrado: 18 Oct 2012, 13:34

Siguiente

Volver a Cine Mudo

¿Quién está conectado?

Usuarios navegando por este Foro: No hay usuarios registrados visitando el Foro y 1 invitado