Scherben (Lupu-Pick, 1921) TVRip VOSE

El raíl

El maravilloso mundo del cine silente.
Hasta 1936 inclusive (<= 1936)

Moderador: Monsieur Lange

Alemania Scherben (Lupu-Pick, 1921) TVRip VOSE

Notapor fifole » 21 Dic 2017, 10:06

EL RAÍL
(1921)


Imagen

IMDb


Producción
Rex-Film GmbH

Director
Lupu-Pick

Guión
Carl Mayer

Intérpretes
Werner Krauss
Edith Posca
Hermine Straßmann-Witt
Paul Otto


Narra la tragedia de una familia. La hija de un modesto guardavía es seducida y abandonada por un ingeniero ferroviario. (FILMAFFINITY)

Ripeo descargado de emule.



Podemos ver el alejamiento del realismo por el uso insistente de un recurso específicamente expresionista. Ningún personaje lleva nombre, en vez de pintar individuos todos los personajes encarnan impulsos y pasiones, figuras alegóricas requeridas para la exteriorización de visiones interiores.
Peio Murguiondo




"El raíl" (1922), de Lupu-Pick, es un tremendo folletín ferroviario con resonancias sociales, que habría resultado ya vetusto en vida de Emilio Zola. No obstente, logró despertar mi adhesión hasta cierto punto. La acción de estos gloriosos "Kammerspielfilm" que nos permite descubrir todos los viernes la Segunda Cadena, resulta tan prolija como tediosa. Pero su magnífica intuición del decorado y su aún hoy admirable fotografía son anticipos de un cine que pronto iba a llegar y que conocería días de gloria. Y a uno siempre le han caído bien los pioneros.
José Luis Guarner
(1972)





Imagen



Datos técnicos:
Código: Seleccionar todo
General
Complete name               : Scherben (Lupu Pick 1921) TVRip.3Sat.avi
Format                      : AVI
Format/Info                 : Audio Video Interleave
File size                   : 828 MiB
Duration                    : 1 h 1 min
Overall bit rate            : 1 891 kb/s
IsTruncated                 : Yes

Video
ID                          : 0
Format                      : MPEG-4 Visual
Format profile              : Simple@L3
Format settings, BVOP       : No
Format settings, QPel       : No
Format settings, GMC        : No warppoints
Format settings, Matrix     : Default (H.263)
Codec ID                    : XVID
Codec ID/Hint               : XviD
Duration                    : 1 h 1 min
Source duration             : 1 h 1 min
Bit rate                    : 1 750 kb/s
Width                       : 704 pixels
Height                      : 528 pixels
Display aspect ratio        : 4:3
Frame rate                  : 25.000 FPS
Color space                 : YUV
Chroma subsampling          : 4:2:0
Bit depth                   : 8 bits
Scan type                   : Progressive
Compression mode            : Lossy
Bits/(Pixel*Frame)          : 0.188
Stream size                 : 766 MiB (93%)
Writing library             : XviD 1.1.2 (UTC 2006-11-01)

Audio
ID                          : 1
Format                      : MPEG Audio
Format version              : Version 1
Format profile              : Layer 3
Mode                        : Joint stereo
Mode extension              : MS Stereo
Codec ID                    : 55
Codec ID/Hint               : MP3
Duration                    : 1 h 1 min
Bit rate mode               : Constant
Bit rate                    : 128 kb/s
Channel(s)                  : 2 channels
Sampling rate               : 48.0 kHz
Compression mode            : Lossy
Stream size                 : 56.0 MiB (7%)
Alignment                   : Split accross interleaves
Interleave, duration        : 24  ms (0.60 video frame)
Interleave, preload duratio : 24  ms



Imagen
Imagen
Imagen
Imagen
Imagen


eD2K link Scherben (Lupu Pick 1921) TVRip.3Sat.avi [827.71 Mb] 

Subtítulos en español obra de David_Holm:
https://www.opensubtitles.org/gl/subtit ... cherben-es
Avatar de Usuario
fifole
 
Mensajes: 3049
Temas: 557
Registrado: 17 Oct 2012, 18:47

Re: Scherben (Lupu-Pick, 1921) TVRip VOSE

Notapor Graveland » 21 Dic 2017, 14:09

Muchas gracias, fifole & David_Holm.
Avatar de Usuario
Graveland
 
Mensajes: 2157
Temas: 291
Registrado: 22 Nov 2012, 14:30

Re: Scherben (Lupu-Pick, 1921) TVRip VOSE

Notapor Prudencio » 22 Dic 2017, 00:17

Pongo mi copia en lanzamiento.
Saludos. :hi:
Avatar de Usuario
Prudencio
 
Mensajes: 3046
Temas: 5
Registrado: 16 Oct 2012, 16:46

Re: Scherben (Lupu-Pick, 1921) TVRip VOSE

Notapor diegof » 22 Dic 2017, 11:26

Muy interesante, fifole. Primera noticia que tengo de este Lupu-Pick. Pincho en unos días.
Avatar de Usuario
diegof
 
Mensajes: 241
Temas: 3
Registrado: 15 May 2017, 12:03

Re: Scherben (Lupu-Pick, 1921) TVRip VOSE

Notapor toerless » 22 Dic 2017, 14:43

No lo entiendo... la tengo hace años así como otra copia de menos calidad. No sé de dónde salieron...
Avatar de Usuario
toerless
 
Mensajes: 778
Temas: 13
Registrado: 16 Oct 2012, 14:27

Re: Scherben (Lupu-Pick, 1921) TVRip VOSE

Notapor rdeespana » 22 Dic 2017, 16:13

Interesante el cartel... para colgarlo en una agencia de viajes más que en una sala de cine, pero bonito, sí señor.
rdeespana
 
Mensajes: 312
Registrado: 06 Dic 2012, 02:30

Re: Scherben (Lupu-Pick, 1921) TVRip VOSE

Notapor yojimbo » 23 Dic 2017, 20:41

Muchas gracias, fifole y David_Holm.
Avatar de Usuario
yojimbo
 
Mensajes: 6796
Temas: 17
Registrado: 18 Oct 2012, 12:25

Re: Scherben (Lupu-Pick, 1921) TVRip VOSE

Notapor MonsieurHulot » 26 Dic 2017, 17:48

Genial este rescate de "Kammerspielfilms" :aplauso:

¿Tenéis previsto incluir Sylvester? Desconozco si hay alguna copia superior a la que circula por Youtube:

Mira en youtube.com
Avatar de Usuario
MonsieurHulot
 
Mensajes: 174
Temas: 25
Registrado: 07 Nov 2014, 19:27

Re: Scherben (Lupu-Pick, 1921) TVRip VOSE

Notapor toerless » 26 Dic 2017, 19:50

Ésta parece un poquito mejor:
https://ulozto.net/!JabwBw9Kw/sylvester-avi
Me la bajo y te cuento.
Avatar de Usuario
toerless
 
Mensajes: 778
Temas: 13
Registrado: 16 Oct 2012, 14:27

Re: Scherben (Lupu-Pick, 1921) TVRip VOSE

Notapor toerless » 26 Dic 2017, 20:04

Al menos en teoría:
528x448, 1:05:22 y 1 GB.
Avatar de Usuario
toerless
 
Mensajes: 778
Temas: 13
Registrado: 16 Oct 2012, 14:27

Siguiente

Volver a Cine Mudo

¿Quién está conectado?

Usuarios navegando por este Foro: No hay usuarios registrados visitando el Foro y 2 invitados