Hintertreppe (Leopold Jessner, 1921) DVDRip VISE

Escalera de servicio

El maravilloso mundo del cine silente.
Hasta 1936 inclusive (<= 1936)

Moderador: Monsieur Lange

Alemania Hintertreppe (Leopold Jessner, 1921) DVDRip VISE

Notapor fifole » 22 Dic 2017, 19:33

ESCALERA DE SERVICIO
(1921)


Imagen

IMDb


Producción
Gloria-Film GmbH &
Henny Porten Filmproduktion

Director
Leopold Jessner
(y Paul Leni)

Guión
Carl Mayer

Intérpretes
Henny Porten
Fritz Kortner
Wilhelm Dieterle


Película compuesta por tres personajes: una muchacha asalariada que se dedica a tareas domésticas; su amante, que promete enviarle cartas en su ausencia; y un cartero lisiado que está obsesionado con ella, que intercepta las cartas. (FILMAFFINITY)

Ripeo, procedente de KG, aportado en su momento por David_Holm.


Hintertreppe (Escalera de servicio), película de Leopold Jessner, director de escena teatral, es un "Kammerspielfilm" avant la lettre. Paul Leni colaboró en ella para la "Bild gestaltung", es decir para la composición de la imagen, y su talento se aplicó en la creación de una atmósfera que se hizo hechizadora gracias a los decorados. El célebre patinillo interior de El último casi parece anodino comparado con el que sirve de marco, cerca de la escalera de servicio, al triste drama de la sirvienta que cree que su amante la ha abandoado porque el cartero, enamorado de ella, intercepta su correo.
Este drama intimista se desarrolla muy lentamente, en un estilo muy "alemán" de manera demasiado pesada, a pesar del empleo de algunas elipsis inspiradas por el teatro. No nos enseñan, por ejemplo, la escena del asesinato, de la que tan sólo vemos, cuando finalmente ha cedido la puerta cerrada con cerrojo, una especie de "cuadro viviente": contra la pared, el asesino se mantiene en una actitud oblicua -la actitud expresionista por excelencia- esgrimiendo aún el hacha por encima de su víctima.
Lotte H. Eisner




Imagen



Datos técnicos:
Código: Seleccionar todo
General
Complete name               : Hintertreppe._Jessner-Leni.1921_.DVDRip.English.avi
Format                      : AVI
Format/Info                 : Audio Video Interleave
File size                   : 762 MiB
Duration                    : 49 min 43 s
Overall bit rate            : 2 143 kb/s
Writing application         : VirtualDubMod 1.5.4.1 (build 2178/release)
Writing library             : VirtualDubMod build 2178/release

Video
ID                          : 0
Format                      : MPEG-4 Visual
Format profile              : Advanced Simple@L5
Format settings, BVOP       : 2
Format settings, QPel       : No
Format settings, GMC        : No warppoints
Format settings, Matrix     : Default (H.263)
Muxing mode                 : Packed bitstream
Codec ID                    : XVID
Codec ID/Hint               : XviD
Duration                    : 49 min 43 s
Bit rate                    : 1 811 kb/s
Width                       : 640 pixels
Height                      : 480 pixels
Display aspect ratio        : 4:3
Frame rate                  : 29.970 (30000/1001) FPS
Color space                 : YUV
Chroma subsampling          : 4:2:0
Bit depth                   : 8 bits
Scan type                   : Progressive
Compression mode            : Lossy
Bits/(Pixel*Frame)          : 0.197
Stream size                 : 644 MiB (85%)
Writing library             : XviD 1.2.1 (UTC 2008-12-04)

Audio
ID                          : 1
Format                      : MPEG Audio
Format version              : Version 1
Format profile              : Layer 3
Codec ID                    : 55
Codec ID/Hint               : MP3
Duration                    : 49 min 43 s
Bit rate mode               : Constant
Bit rate                    : 320 kb/s
Channel(s)                  : 2 channels
Sampling rate               : 48.0 kHz
Compression mode            : Lossy
Stream size                 : 114 MiB (15%)
Alignment                   : Split accross interleaves
Interleave, duration        : 33  ms (1.00 video frame)
Interleave, preload duratio : 500  ms



Imagen
Imagen
Imagen
Imagen
Imagen


eD2K link Hintertreppe._Jessner-Leni.1921_.DVDRip.English.avi [884.91 Mb] 

Subtítulos en español obra de canaguayo sincronizados por jm1983:
https://www.opensubtitles.org/es/subtit ... rtreppe-es
Avatar de Usuario
fifole
 
Mensajes: 3052
Temas: 558
Registrado: 17 Oct 2012, 18:47

Re: Hintertreppe (Leopold Jessner, 1921) DVDRip VISE

Notapor Prudencio » 22 Dic 2017, 21:34

Muchas gracias, fifole, David_Holm, canaguayo y jm1983. :hi:
Avatar de Usuario
Prudencio
 
Mensajes: 3050
Temas: 5
Registrado: 16 Oct 2012, 16:46

Re: Hintertreppe (Leopold Jessner, 1921) DVDRip VISE

Notapor sete » 23 Dic 2017, 08:50

Muchas gracias, fifole, David_Holm, canaguayo y jm1983.
:hi:
Este mundo está traicionando a la vida.
José Luis Sampedro
Avatar de Usuario
sete
 
Mensajes: 2502
Registrado: 22 Dic 2012, 15:10

Re: Hintertreppe (Leopold Jessner, 1921) DVDRip VISE

Notapor Guiller3 » 23 Dic 2017, 18:33

Magnífico aporte, fifole. Jessner tenía una gran experiencia teatral y eso le permitía ofrecer una notable dirección de actores y, Paul Leni, era un magistral decorador que aseguraba siempre una gran belleza visual. Con la firma de Leni, vendrían después otras maravillas como El Gabinete de las figuras de Cera, El gato y el canario y El Hombre que Ríe.

Altamente agradecido.
Avatar de Usuario
Guiller3
 
Mensajes: 241
Temas: 5
Registrado: 12 May 2013, 01:58
Ubicación: Si eres mujer, búscame en tu corazón. Si eres hombre, me hallarás en tu cabeza.

Re: Hintertreppe (Leopold Jessner, 1921) DVDRip VISE

Notapor Jon Olarticoetxea » 23 Dic 2017, 19:02

Pincho. Gracias, fifole.
Avatar de Usuario
Jon Olarticoetxea
 
Mensajes: 262
Temas: 4
Registrado: 18 Jun 2014, 18:14

Re: Hintertreppe (Leopold Jessner, 1921) DVDRip VISE

Notapor yojimbo » 23 Dic 2017, 20:44

Muchas gracias, fifole, David_Holm, canaguayo y jm1983.
Avatar de Usuario
yojimbo
 
Mensajes: 6797
Temas: 17
Registrado: 18 Oct 2012, 12:25

Re: Hintertreppe (Leopold Jessner, 1921) DVDRip VISE

Notapor jail » 23 Dic 2017, 21:07

Gracias, fifole, David_Holm, canaguayo y jm1983.
jail
 
Mensajes: 4162
Temas: 6
Registrado: 18 Oct 2012, 13:34

Re: Hintertreppe (Leopold Jessner, 1921) DVDRip VISE

Notapor Arthur James Hamp » 23 Dic 2017, 21:10

jail escribió:Gracias, fifole, David_Holm, canaguayo y jm1983.

:genial: :aplauso: :aplauso:
"Cuando tu cabeza dice una cosa y toda tu vida dice la otra, la cabeza siempre pierde" (Cayo Largo)
Avatar de Usuario
Arthur James Hamp
 
Mensajes: 905
Temas: 103
Registrado: 06 May 2016, 09:47

Re: Hintertreppe (Leopold Jessner, 1921) DVDRip VISE

Notapor gatatitania » 24 Dic 2017, 18:10

¡Gracias a todos! :aplauso: :aplauso: :aplauso:
Avatar de Usuario
gatatitania
 
Mensajes: 3324
Temas: 102
Registrado: 16 Oct 2012, 16:27
Ubicación: Gatatitania es un gato hambriento, superviviente del planeta gatatitania...

Re: Hintertreppe (Leopold Jessner, 1921) DVDRip VISE

Notapor Angeluco » 26 Dic 2017, 20:16

Gracias, Fífole, David_Holm, Canaguayo y Jm1983.
Angeluco
 
Mensajes: 843
Temas: 1
Registrado: 25 Nov 2012, 11:41


Volver a Cine Mudo

¿Quién está conectado?

Usuarios navegando por este Foro: No hay usuarios registrados visitando el Foro y 1 invitado