Das Kriegssofa (William Karfiol, 1914) WebRip VOSE

El sofá de la guerra

El maravilloso mundo del cine silente.
Hasta 1936 inclusive (<= 1936)

Moderador: Monsieur Lange

Alemania Das Kriegssofa (William Karfiol, 1914) WebRip VOSE

Notapor fifole » 29 Dic 2017, 22:07

DAS KRIEGSSOFA
(1914)


Imagen


Producción
National-Film GmbH (Berlin)

Director
William Karfiol

Guión
William Karfiol

Intérpretes
Richard Georg
Tatjana Irrah
Karl Platen

Género
Comedia


Antes del viaje a Berlín, Herr Schnirpel esconde su dinero en el cojín del sofá. Cuando vuelve, la Primera Guerra Mundial ha empezado. Las tropas rusas han ocupado su ciudad natal y el dinero ha desaparecido. (FILMAFFINITY)


Copia descargada de filmportal.de. Subtítulos obra de toerless.


Datos técnicos:
Código: Seleccionar todo
General
Complete name               : Das Kriegssofa (1914).mp4
Format                      : MPEG-4
Format profile              : Base Media / Version 2
Codec ID                    : mp42 (mp42/mp41)
File size                   : 553 MiB
Duration                    : 36 min 21 s
Overall bit rate            : 2 125 kb/s
Encoded date                : UTC 2013-07-22 10:29:37
Tagged date                 : UTC 2013-07-22 10:30:07
©TIM                        : 00:00:00:00
©TSC                        : 24000
©TSZ                        : 1001

Video
ID                          : 1
Format                      : AVC
Format/Info                 : Advanced Video Codec
Format profile              : High@L3
Format settings, CABAC      : Yes
Format settings, RefFrames  : 3 frames
Codec ID                    : avc1
Codec ID/Info               : Advanced Video Coding
Duration                    : 36 min 21 s
Source duration             : 36 min 21 s
Bit rate                    : 1 995 kb/s
Width                       : 640 pixels
Height                      : 480 pixels
Display aspect ratio        : 4:3
Frame rate mode             : Variable
Frame rate                  : 23.976 (24000/1001) FPS
Minimum frame rate          : 23.976 FPS
Maximum frame rate          : 24.000 FPS
Standard                    : NTSC
Color space                 : YUV
Chroma subsampling          : 4:2:0
Bit depth                   : 8 bits
Scan type                   : Progressive
Bits/(Pixel*Frame)          : 0.271
Stream size                 : 519 MiB (94%)
Source stream size          : 519 MiB (94%)
Language                    : English
Encoded date                : UTC 2013-07-22 10:29:37
Tagged date                 : UTC 2013-07-22 10:29:37
Color range                 : Limited
Color primaries             : BT.601 NTSC
Transfer characteristics    : BT.601
Matrix coefficients         : BT.601
mdhd_Duration               : 2181555

Audio
ID                          : 2
Format                      : AAC
Format/Info                 : Advanced Audio Codec
Format profile              : LC
Codec ID                    : 40
Duration                    : 36 min 21 s
Source duration             : 36 min 21 s
Bit rate mode               : Constant
Bit rate                    : 125 kb/s
Channel(s)                  : 2 channels
Channel positions           : Front: L R
Sampling rate               : 48.0 kHz
Frame rate                  : 46.875 FPS (1024 SPF)
Compression mode            : Lossy
Stream size                 : 32.6 MiB (6%)
Source stream size          : 32.6 MiB (6%)
Language                    : English
Encoded date                : UTC 2013-07-22 10:29:37
Tagged date                 : UTC 2013-07-22 10:29:37
mdhd_Duration               : 2181589



Imagen
Imagen
Imagen
Imagen


eD2K link Das Kriegssofa (1914).mp4 [552.51 Mb] 

Subtítulos en español obra de toerless:
https://www.opensubtitles.org/es/subtit ... egssofa-es
Avatar de Usuario
fifole
 
Mensajes: 3052
Temas: 558
Registrado: 17 Oct 2012, 18:47

Re: Das Kriegssofa (William Karfiol, 1914) WebRip VOSE

Notapor Monsieur Lange » 29 Dic 2017, 22:52

Mil gracias fifole. A casa con ella :aplauso:
"¡De buena nos hemos librado! ¡Nada menos que el señorito salamanquino!

Francisco Camacho (1936). "El cura de aldea"
Avatar de Usuario
Monsieur Lange
 
Mensajes: 2970
Temas: 73
Registrado: 13 Sep 2012, 17:39
Ubicación: Cruzando las dunas

Re: Das Kriegssofa (William Karfiol, 1914) WebRip VOSE

Notapor toerless » 29 Dic 2017, 23:30

Parece que esta es posible que sea un poquitito mejor: https://ulozto.net/!wLHL2zWLHGrP/das-kr ... l-1914-mkv
Me la bajo y miraré si es así y qué pasa con mis subtítulos, por si hay que retocarlos. Que no creo, porque dura lo mismo.
Avatar de Usuario
toerless
 
Mensajes: 779
Temas: 14
Registrado: 16 Oct 2012, 14:27

Re: Das Kriegssofa (William Karfiol, 1914) WebRip VOSE

Notapor Angeluco » 30 Dic 2017, 15:50

Muchas gracias,Fífole y Toerless.
Angeluco
 
Mensajes: 843
Temas: 1
Registrado: 25 Nov 2012, 11:41

Re: Das Kriegssofa (William Karfiol, 1914) WebRip VOSE

Notapor Graveland » 30 Dic 2017, 18:22

Muchas gracias, fifole & toerless.
Avatar de Usuario
Graveland
 
Mensajes: 2158
Temas: 291
Registrado: 22 Nov 2012, 14:30

Re: Das Kriegssofa (William Karfiol, 1914) WebRip VOSE

Notapor sete » 01 Ene 2018, 10:52

Muchas gracias, toerless y fifole.
:hi:
Este mundo está traicionando a la vida.
José Luis Sampedro
Avatar de Usuario
sete
 
Mensajes: 2502
Registrado: 22 Dic 2012, 15:10

Re: Das Kriegssofa (William Karfiol, 1914) WebRip VOSE

Notapor jail » 02 Ene 2018, 17:06

Gracias, fífole, toerless y a la gente de filmportal.de.
jail
 
Mensajes: 4162
Temas: 6
Registrado: 18 Oct 2012, 13:34

Re: Das Kriegssofa (William Karfiol, 1914) WebRip VOSE

Notapor yojimbo » 02 Ene 2018, 21:22

Muchas gracias, fifole y toerless.
Avatar de Usuario
yojimbo
 
Mensajes: 6797
Temas: 17
Registrado: 18 Oct 2012, 12:25

Re: Das Kriegssofa (William Karfiol, 1914) WebRip VOSE

Notapor Prudencio » 07 Ene 2018, 12:38

Muchas gracias, fifole y toerless. :hi:
Avatar de Usuario
Prudencio
 
Mensajes: 3050
Temas: 5
Registrado: 16 Oct 2012, 16:46


Volver a Cine Mudo

¿Quién está conectado?

Usuarios navegando por este Foro: No hay usuarios registrados visitando el Foro y 1 invitado