Harry wird Millionär (Emil Albes, 1918) WebRip VOSE

El maravilloso mundo del cine silente.
Hasta 1936 inclusive (<= 1936)

Moderador: Monsieur Lange

Alemania Harry wird Millionär (Emil Albes, 1918) WebRip VOSE

Notapor fifole » 30 Dic 2017, 18:09

HARRY WIRD MILLIONÄR
(1918)


Imagen

IMDb


Producción
Decla-Film-Ges. Holz & Co. (Berlin)

Director
Emil Albes

Guión
Julius Sternheim

Intérpretes
Harry Lamberts-Paulsen
Emil Sondermann

Género
Comedia


A Harry le encantaría casarse con su Grete inmediatamente, pero primero debe obtener la aprobación de su suegro, el empresario Goldfish. Éste pone una condición nada despreciable para el pobre Harry: tiene que demostrar que también es capaz de mantener a su futura esposa...

Copia descargada de filmportal.de. Subtítulos obra de toerless.


Imagen
Harry Lamberts-Paulsen


Datos técnicos:
Código: Seleccionar todo
General
Complete name               :Harry wird Millionar (1918).mp4
Format                      : MPEG-4
Format profile              : Base Media / Version 2
Codec ID                    : mp42 (mp42/mp41)
File size                   : 592 MiB
Duration                    : 38 min 56 s
Overall bit rate            : 2 125 kb/s
Encoded date                : UTC 2013-08-30 10:26:59
Tagged date                 : UTC 2013-08-30 10:27:21
©TIM                        : 00:00:00:00
©TSC                        : 24000
©TSZ                        : 1001

Video
ID                          : 1
Format                      : AVC
Format/Info                 : Advanced Video Codec
Format profile              : High@L3
Format settings, CABAC      : Yes
Format settings, RefFrames  : 3 frames
Format settings, GOP        : M=3, N=8
Codec ID                    : avc1
Codec ID/Info               : Advanced Video Coding
Duration                    : 38 min 56 s
Source duration             : 38 min 56 s
Bit rate                    : 1 995 kb/s
Width                       : 640 pixels
Height                      : 480 pixels
Display aspect ratio        : 4:3
Frame rate mode             : Variable
Frame rate                  : 23.976 (24000/1001) FPS
Minimum frame rate          : 23.976 FPS
Maximum frame rate          : 24.000 FPS
Standard                    : NTSC
Color space                 : YUV
Chroma subsampling          : 4:2:0
Bit depth                   : 8 bits
Scan type                   : Progressive
Bits/(Pixel*Frame)          : 0.271
Stream size                 : 556 MiB (94%)
Source stream size          : 556 MiB (94%)
Language                    : English
Encoded date                : UTC 2013-08-30 10:26:59
Tagged date                 : UTC 2013-08-30 10:26:59
Color range                 : Limited
Color primaries             : BT.601 NTSC
Transfer characteristics    : BT.601
Matrix coefficients         : BT.601
mdhd_Duration               : 2336209

Audio
ID                          : 2
Format                      : AAC
Format/Info                 : Advanced Audio Codec
Format profile              : LC
Codec ID                    : 40
Duration                    : 38 min 56 s
Source duration             : 38 min 56 s
Bit rate mode               : Constant
Bit rate                    : 125 kb/s
Channel(s)                  : 2 channels
Channel positions           : Front: L R
Sampling rate               : 48.0 kHz
Frame rate                  : 46.875 FPS (1024 SPF)
Compression mode            : Lossy
Stream size                 : 34.9 MiB (6%)
Source stream size          : 34.9 MiB (6%)
Language                    : English
Encoded date                : UTC 2013-08-30 10:26:59
Tagged date                 : UTC 2013-08-30 10:26:59
mdhd_Duration               : 2336256



Imagen
Imagen
Imagen
Imagen


eD2K link Harry wird Millionar (1918).mp4 [591.74 Mb] 

Subtítulos en español obra de toerless:
https://subscene.com/subtitles/harry-wi ... ish/965448
Avatar de Usuario
fifole
 
Mensajes: 3049
Temas: 557
Registrado: 17 Oct 2012, 18:47

Re: Harry wird Millionär (Emil Albes, 1918) WebRip VOSE

Notapor Graveland » 30 Dic 2017, 18:20

Muchas gracias, fifole & toerless.
Avatar de Usuario
Graveland
 
Mensajes: 2157
Temas: 291
Registrado: 22 Nov 2012, 14:30

Re: Harry wird Millionär (Emil Albes, 1918) WebRip VOSE

Notapor Angeluco » 31 Dic 2017, 15:40

Graveland escribió:Muchas gracias, fifole & toerless.



Muchas gracias a los dos.
Angeluco
 
Mensajes: 842
Temas: 1
Registrado: 25 Nov 2012, 11:41

Re: Harry wird Millionär (Emil Albes, 1918) WebRip VOSE

Notapor gatatitania » 31 Dic 2017, 16:17

¡Gracias! :aplauso: :aplauso: :aplauso:
Avatar de Usuario
gatatitania
 
Mensajes: 3322
Temas: 102
Registrado: 16 Oct 2012, 16:27
Ubicación: Gatatitania es un gato hambriento, superviviente del planeta gatatitania...

Re: Harry wird Millionär (Emil Albes, 1918) WebRip VOSE

Notapor Monsieur Lange » 31 Dic 2017, 20:09

Muy buena pinta. Pincho a mi vuelta.
Gracias fifole t toerless :hi:
"¡De buena nos hemos librado! ¡Nada menos que el señorito salamanquino!

Francisco Camacho (1936). "El cura de aldea"
Avatar de Usuario
Monsieur Lange
 
Mensajes: 2967
Temas: 73
Registrado: 13 Sep 2012, 17:39
Ubicación: Cruzando las dunas

Re: Harry wird Millionär (Emil Albes, 1918) WebRip VOSE

Notapor sete » 01 Ene 2018, 10:47

Muchas gracias, fifole y toerless.
:hi:
Este mundo está traicionando a la vida.
José Luis Sampedro
Avatar de Usuario
sete
 
Mensajes: 2502
Registrado: 22 Dic 2012, 15:10

Re: Harry wird Millionär (Emil Albes, 1918) WebRip VOSE

Notapor jail » 02 Ene 2018, 17:01

Gracias, fifole y toerless.
jail
 
Mensajes: 4160
Temas: 6
Registrado: 18 Oct 2012, 13:34

Re: Harry wird Millionär (Emil Albes, 1918) WebRip VOSE

Notapor yojimbo » 07 Ene 2018, 10:35

Muchas gracias, fifole y toerless.
Avatar de Usuario
yojimbo
 
Mensajes: 6796
Temas: 17
Registrado: 18 Oct 2012, 12:25

Re: Harry wird Millionär (Emil Albes, 1918) WebRip VOSE

Notapor Prudencio » 07 Ene 2018, 12:12

Muchas gracias, fifole y toerless. :hi:
Avatar de Usuario
Prudencio
 
Mensajes: 3047
Temas: 5
Registrado: 16 Oct 2012, 16:46

Re: Harry wird Millionär (Emil Albes, 1918) WebRip VOSE

Notapor tonapar1 » 16 Ene 2018, 22:52

Muchas gracias por el ripeo y los subs a fifole y toerless. Un saludo a ambos.
Avatar de Usuario
tonapar1
 
Mensajes: 2597
Registrado: 16 Oct 2012, 18:19


Volver a Cine Mudo

¿Quién está conectado?

Usuarios navegando por este Foro: No hay usuarios registrados visitando el Foro y 1 invitado