Sappho (Dimitri Buchowetzki, 1921) VHSRip VISE

El maravilloso mundo del cine silente.
Hasta 1936 inclusive (<= 1936)

Moderador: Monsieur Lange

Alemania Sappho (Dimitri Buchowetzki, 1921) VHSRip VISE

Notapor fifole » 02 Ene 2018, 19:36

SAPPHO
(1921)


Imagen

IMDb


Producción
Projektions-AG Union (PAGU)

Director
Dimitri Buchowetzki

Guión
Dimitri Buchowetzki

Argumento
Alejandro Dumas

Intérpretes
Pola Negri
Johannes Riemann
Alfred Abel
Albert Steinrück
Helga Molander
Otto Treptow
Elsa Wagner
Ellinor Gynt

Género
Drama


El ingeniero Georg de la Croix (Alfred Abel) padece de un ataque de nervios debido a las continuas infidelidades de su amada, Sappho (Pola Negri), motivo por el cual finalmente Georg será ingresado en un manicomio. Su hermano Richard (Johannes Riemann) quiere vengar dicha afrenta, pero finalmente el susodicho también se enamorará de la bella Sappho. Cuando Richard descubre, gracias a las confidencias de un antiguo amante de Sappho, que dicha señorita ha sido la causa de los infortunios mentales de su hermano, Richard decide acabar esa historia de amor, casándose con una antigua pretendienta, pero minutos antes de su boda, Richard tiene la necesidad imperiosa de ver por última vez a Sappho. (FILMAFFINITY)

Copia descargada de emule. Subtítulos obra de toerless.


Imagen


El filme germánico“Sappho” fue dirigido por el célebre y reputado, además de emigrante, director ruso Herr Dimitri Buchowetzki, el cual durante su época rusa tuvo ya una especial relación profesional con Dame Pola, dirigiendo a ésta en numerosas producciones suyas, siendo la protagonista de sus prestigiosos y numerosos dramas de época, característica ésta última de sus más aclamados filmes en los cuales destacan una excelente dirección artística, bellas localizaciones exteriores, además de una cuidadosa fotografía ( en esta ocasión a cargo de Herr Arpad Viragh ), sin olvidarse de una modernidad todavía muy apreciable en estos días melenudos.

Además de las excelentes cualidades técnicas de “Sappho”, dicha obra destaca por su especial preocupación por resaltar los aspectos psicológicos de la historia, esto es, las penas y tristezas del amor, amores incontrolados que no atienden a razones, capturando y exhibiendo el director la lujuria y el espíritu libertino de una sociedad decadente, repleta de personajes que no dudan en hacerse daño con tal de conseguir lo que persiguen a toda costa.

Este torbellino de pasiones amorosas tendrá un “grand finale” al remate de la obra durante una magnífica y emocionante escena que transcurre en la Ópera ( Herr Buchowetzki en su mejor momento ) en donde nuestra heroína ( Dame Pola en su mejor momento también ) pagará finalmente por sus viejos y recién adquiridos amores.
Ferdinand Von Galitzien



Imagen


Datos técnicos:
Código: Seleccionar todo
General
Complete name               : 1921. Sappho - Mad Love (Pola Negri) 1921.avi
Format                      : AVI
Format/Info                 : Audio Video Interleave
File size                   : 599 MiB
Duration                    : 1 h 21 min
Overall bit rate mode       : Variable
Overall bit rate            : 1 023 kb/s
Writing application         : VirtualDubMod 1.5.4.1 (build 2178/release)
Writing library             : VirtualDubMod build 2178/release

Video
ID                          : 0
Format                      : MPEG-4 Visual
Format profile              : Advanced Simple@L5
Format settings, BVOP       : 1
Format settings, QPel       : No
Format settings, GMC        : No warppoints
Format settings, Matrix     : Custom
Codec ID                    : XVID
Codec ID/Hint               : XviD
Duration                    : 1 h 21 min
Bit rate                    : 810 kb/s
Width                       : 496 pixels
Height                      : 368 pixels
Display aspect ratio        : 4:3
Frame rate                  : 29.970 (30000/1001) FPS
Color space                 : YUV
Chroma subsampling          : 4:2:0
Bit depth                   : 8 bits
Scan type                   : Progressive
Compression mode            : Lossy
Bits/(Pixel*Frame)          : 0.148
Stream size                 : 474 MiB (79%)
Writing library             : XviD 1.2.1 (UTC 2008-12-04)

Audio
ID                          : 1
Format                      : MPEG Audio
Format version              : Version 1
Format profile              : Layer 3
Mode                        : Joint stereo
Mode extension              : MS Stereo
Codec ID                    : 55
Codec ID/Hint               : MP3
Duration                    : 1 h 21 min
Bit rate mode               : Variable
Bit rate                    : 208 kb/s
Channel(s)                  : 2 channels
Sampling rate               : 48.0 kHz
Compression mode            : Lossy
Stream size                 : 117 MiB (20%)
Alignment                   : Aligned on interleaves
Interleave, duration        : 24  ms (0.72 video frame)
Interleave, preload duratio : 92  ms
Writing library             : LAME3.98r
Encoding settings           : -m j -V 4 -q 2 -lowpass 19.4 --abr 208



Imagen
Imagen
Imagen
Imagen
Imagen



eD2K link 1921. Sappho - Mad Love (Pola Negri) 1921.avi [598.98 Mb] 

Subtítulos en español obra de toerless:
https://www.opensubtitles.org/es/subtit ... /sappho-es
Avatar de Usuario
fifole
 
Mensajes: 3049
Temas: 557
Registrado: 17 Oct 2012, 18:47

Re: Sappho (Dimitri Buchowetzki, 1921) VHSRip VISE

Notapor Arthur James Hamp » 02 Ene 2018, 20:15

Muchas gracias fifole. :genial: :aplauso: :aplauso:
"Cuando tu cabeza dice una cosa y toda tu vida dice la otra, la cabeza siempre pierde" (Cayo Largo)
Avatar de Usuario
Arthur James Hamp
 
Mensajes: 903
Temas: 103
Registrado: 06 May 2016, 09:47

Re: Sappho (Dimitri Buchowetzki, 1921) VHSRip VISE

Notapor jail » 02 Ene 2018, 20:53

Gracias, fifole y toerless.
jail
 
Mensajes: 4159
Temas: 6
Registrado: 18 Oct 2012, 13:34

Re: Sappho (Dimitri Buchowetzki, 1921) VHSRip VISE

Notapor james mason » 02 Ene 2018, 22:12

Muchas gracias a los dos! :aplauso: :aplauso: :aplauso:

:hi:
james mason
 
Mensajes: 817
Temas: 12
Registrado: 03 Oct 2012, 09:31
Ubicación: En algún lugar de Extremadura

Re: Sappho (Dimitri Buchowetzki, 1921) VHSRip VISE

Notapor Angeluco » 03 Ene 2018, 15:25

Muchas gracias, Fífole y Toerless.
Angeluco
 
Mensajes: 841
Temas: 1
Registrado: 25 Nov 2012, 11:41

Re: Sappho (Dimitri Buchowetzki, 1921) VHSRip VISE

Notapor sete » 03 Ene 2018, 20:14

Muchas gracias, fifole y toerless.
:hi:
Este mundo está traicionando a la vida.
José Luis Sampedro
Avatar de Usuario
sete
 
Mensajes: 2502
Registrado: 22 Dic 2012, 15:10

Re: Sappho (Dimitri Buchowetzki, 1921) VHSRip VISE

Notapor Graveland » 04 Ene 2018, 19:38

Muchas gracias, fifole & toerless.
Avatar de Usuario
Graveland
 
Mensajes: 2157
Temas: 291
Registrado: 22 Nov 2012, 14:30

Re: Sappho (Dimitri Buchowetzki, 1921) VHSRip VISE

Notapor Monsieur Lange » 06 Ene 2018, 16:25

fifole, no paras de sorprendernos :amo: :amo:
"¡De buena nos hemos librado! ¡Nada menos que el señorito salamanquino!

Francisco Camacho (1936). "El cura de aldea"
Avatar de Usuario
Monsieur Lange
 
Mensajes: 2967
Temas: 73
Registrado: 13 Sep 2012, 17:39
Ubicación: Cruzando las dunas

Re: Sappho (Dimitri Buchowetzki, 1921) VHSRip VISE

Notapor yojimbo » 07 Ene 2018, 10:36

Muchas gracias, fifole y toerless.
Avatar de Usuario
yojimbo
 
Mensajes: 6796
Temas: 17
Registrado: 18 Oct 2012, 12:25

Re: Sappho (Dimitri Buchowetzki, 1921) VHSRip VISE

Notapor Prudencio » 07 Ene 2018, 12:08

Muchas gracias, fifole y toerless. :hi:
Avatar de Usuario
Prudencio
 
Mensajes: 3046
Temas: 5
Registrado: 16 Oct 2012, 16:46

Siguiente

Volver a Cine Mudo

¿Quién está conectado?

Usuarios navegando por este Foro: No hay usuarios registrados visitando el Foro y 1 invitado