Balletdanserinden (August Blom, 1911) WebRip VOSE

El maravilloso mundo del cine silente.
Hasta 1936 inclusive (<= 1936)

Moderador: Monsieur Lange

Dinamarca Balletdanserinden (August Blom, 1911) WebRip VOSE

Notapor fifole » 10 Ene 2018, 21:49

BALLETDANSERINDEN
(1911)


Imagen

IMDb


Producción
Nordisk Film

Director
August Blom

Guión
Alfred Kjerulf

Intérpretes
Asta Nielsen
Valdemar Psilander
Johannes Poulsen
Valdemar Møller
Karen Lund
Emilie Sannom


Camille es una chica guapa que tiene más de un trabajo en el mundo de las artes (ella es una ocasional actriz y bailarina) y una muy complicada vida amorosa que un conde alemán tratará de explicar. (FILMAFFINITY)

Copia descargada de YouTube. Subtítulos traducidos por un servidor.



Imagen



Datos técnicos:
Código: Seleccionar todo
General
Complete name               : Balletdanserinden (August Blom, 1911).mp4
Format                      : MPEG-4
Format profile              : Base Media
Codec ID                    : isom (isom/iso2/avc1/mp41)
File size                   : 325 MiB
Duration                    : 34 min 37 s
Overall bit rate            : 1 313 kb/s
Writing application         : Lavf55.49.100

Video
ID                          : 1
Format                      : AVC
Format/Info                 : Advanced Video Codec
Format profile              : Main@L3
Format settings, CABAC      : Yes
Format settings, RefFrames  : 3 frames
Codec ID                    : avc1
Codec ID/Info               : Advanced Video Coding
Duration                    : 34 min 37 s
Bit rate                    : 1 052 kb/s
Width                       : 640 pixels
Height                      : 480 pixels
Display aspect ratio        : 4:3
Frame rate mode             : Constant
Frame rate                  : 25.000 FPS
Color space                 : YUV
Chroma subsampling          : 4:2:0
Bit depth                   : 8 bits
Scan type                   : Progressive
Bits/(Pixel*Frame)          : 0.137
Stream size                 : 261 MiB (80%)

Audio
ID                          : 2
Format                      : AAC
Format/Info                 : Advanced Audio Codec
Format profile              : LC
Codec ID                    : 40
Duration                    : 34 min 37 s
Bit rate mode               : Constant
Bit rate                    : 254 kb/s
Channel(s)                  : 2 channels
Channel positions           : Front: L R
Sampling rate               : 44.1 kHz
Frame rate                  : 43.066 FPS (1024 SPF)
Compression mode            : Lossy
Stream size                 : 62.8 MiB (19%)
Default                     : Yes
Alternate group             : 1



Imagen
Imagen
Imagen
Imagen


eD2K link Balletdanserinden (August Blom, 1911).mp4 [325.05 Mb] 

Subtítulos en español:
https://mega.nz/#!QuwDXZ7T!ITrOD6K6AcvA ... wSuzbX8G4E
Avatar de Usuario
fifole
 
Mensajes: 3052
Temas: 558
Registrado: 17 Oct 2012, 18:47

Re: Balletdanserinden (August Blom, 1911) WebRip VOSE

Notapor gatatitania » 10 Ene 2018, 23:19

¡Gracias, Fifole! :aplauso: :aplauso: :aplauso:
Avatar de Usuario
gatatitania
 
Mensajes: 3324
Temas: 102
Registrado: 16 Oct 2012, 16:27
Ubicación: Gatatitania es un gato hambriento, superviviente del planeta gatatitania...

Re: Balletdanserinden (August Blom, 1911) WebRip VOSE

Notapor jail » 10 Ene 2018, 23:20

Gracias, fifole.
jail
 
Mensajes: 4162
Temas: 6
Registrado: 18 Oct 2012, 13:34

Re: Balletdanserinden (August Blom, 1911) WebRip VOSE

Notapor Prudencio » 11 Ene 2018, 01:12

Muchas gracias, fifole. :hi:
Avatar de Usuario
Prudencio
 
Mensajes: 3050
Temas: 5
Registrado: 16 Oct 2012, 16:46

Re: Balletdanserinden (August Blom, 1911) WebRip VOSE

Notapor busterkitton » 11 Ene 2018, 10:37

fifole, arrancas 2018 con todas las papeletas para ser el Man of the Year del mundo cinéfilo :up:
busterkitton
 
Mensajes: 164
Registrado: 17 Oct 2012, 11:45

Re: Balletdanserinden (August Blom, 1911) WebRip VOSE

Notapor sete » 11 Ene 2018, 14:21

Muchas gracias, fifole.
:hi:
Este mundo está traicionando a la vida.
José Luis Sampedro
Avatar de Usuario
sete
 
Mensajes: 2502
Registrado: 22 Dic 2012, 15:10

Re: Balletdanserinden (August Blom, 1911) WebRip VOSE

Notapor Angeluco » 11 Ene 2018, 15:24

Muchas gracias,Fífole.
Angeluco
 
Mensajes: 843
Temas: 1
Registrado: 25 Nov 2012, 11:41

Re: Balletdanserinden (August Blom, 1911) WebRip VOSE

Notapor Graveland » 13 Ene 2018, 14:38

Muchas gracias, fifole.
Avatar de Usuario
Graveland
 
Mensajes: 2158
Temas: 291
Registrado: 22 Nov 2012, 14:30

Re: Balletdanserinden (August Blom, 1911) WebRip VOSE

Notapor asung » 16 Ene 2018, 22:17

Gracias fifole, le la llevo al Galeón
asung
 
Mensajes: 569
Registrado: 16 Oct 2012, 19:57

Re: Balletdanserinden (August Blom, 1911) WebRip VOSE

Notapor tonapar1 » 18 Ene 2018, 14:41

Muchas gracias por el ripeo y los subs a fifole. Un saludo.
Avatar de Usuario
tonapar1
 
Mensajes: 2597
Registrado: 16 Oct 2012, 18:19


Volver a Cine Mudo

¿Quién está conectado?

Usuarios navegando por este Foro: Bing [Bot] y 1 invitado