A Tale of Two Cities (Jack Conway, 1935) DVDRip Dual SE

Historia de dos ciudades

Ripeos nuevos y/o antiguos, de pelis ya posteadas.

Moderador: mifune

Estados Unidos A Tale of Two Cities (Jack Conway, 1935) DVDRip Dual SE

Notapor DMMD » 03 Dic 2017, 14:21

A Tale of Two Cities

Jack Conway, 1935



Imagen

Imagen




Historia de dos ciudades

Título original A Tale of Two Cities
Año 1935
Duración 128 min.
País Imagen
Dirección Jack Conway
Guion W.P. Lipscomb, S.N. Behrman (Novela: Charles Dickens)
Música[ b]Herbert Stothart[/b]
Fotografía Oliver T. Marsh (B&W)
Reparto
Ronald Colman, Elizabeth Allan, Edna May Oliver, Reginald Owen, Basil Rathbone, Blanche Yurka, Henry B. Walthall, Donald Woods, Claude Gillingwater, Walter Catlett, H. B. Warner, Fritz Leiber, Lucille La Verne, Mitchell Lewis, Isabel Jewell, Tully Marshall, Billy Bevan, E. E. Clive, Robert Warwick, Eily Malyon, Lawrence Grant, Ralf Harolde, Fay Chaldecott, John Davidson, Tom Ricketts, Donald Haines, Barlowe Borland

Productora MGM. Productor: David O. Selznick
Género Drama | Revolución Francesa. Siglo XVIII
Sinopsis
Londres y París. Cuando Lucía viaja con su padre a Inglaterra, conoce a varios hombres que se enamoran de ella, entre ellos Sidney, un abogado inglés. Pero ella se casa con Carlos y ambos viven felices en Londres. Mientras tanto, en París, el caos y la agitación previos a la Revolución (1789) se adueñan de las calles. A pesar de ello, Carlos debe ir a París, pues van a condenar a alguien por su culpa y ha de impedirlo. Una vez allí, es encarcelado y condenado a morir en la guillotina. (FILMAFFINITY)

Premios
1936: 2 nominaciones al Oscar: Mejor película, montaje


Código: Seleccionar todo
General
Unique ID                                : 233611751853018428107125416041135828112 (0xAFBFFCA097B5AE6D88742966D9556C90)
Complete name                            : D:\Incoming\1935-A.Tale.Of.Two.Cities.DVDx264.AC3.AAC[DMMD].mkv
Format                                   : Matroska
Format version                           : Version 4 / Version 2
File size                                : 2.67 GiB
Duration                                 : 2 h 6 min
Overall bit rate                         : 3 034 kb/s
Movie name                               : 1935-A.Tale.Of.Two.Cities.DVDx264.AC3.AAC[DMMD]
Encoded date                             : UTC 2017-11-05 21:33:59
Writing application                      : mkvmerge v17.0.0 ('Be Ur Friend') 64-bit
Writing library                          : libebml v1.3.5 + libmatroska v1.4.8

Video
ID                                       : 1
Format                                   : AVC
Format/Info                              : Advanced Video Codec
Format profile                           : High@L4.1
Format settings                          : CABAC / 16 Ref Frames
Format settings, CABAC                   : Yes
Format settings, RefFrames               : 16 frames
Codec ID                                 : V_MPEG4/ISO/AVC
Duration                                 : 2 h 6 min
Bit rate                                 : 2 713 kb/s
Width                                    : 712 pixels
Height                                   : 478 pixels
Display aspect ratio                     : 4:3
Original display aspect ratio            : 4:3
Frame rate mode                          : Constant
Frame rate                               : 23.976 (24000/1001) FPS
Color space                              : YUV
Chroma subsampling                       : 4:2:0
Bit depth                                : 8 bits
Scan type                                : Progressive
Bits/(Pixel*Frame)                       : 0.332
Stream size                              : 2.39 GiB (89%)
Writing library                          : x264 core 152 r2851kMod ba24899
Encoding settings                        : cabac=1 / ref=16 / deblock=1:-3:-3 / analyse=0x3:0x133 / me=umh / subme=11 / psy=1 / fade_compensate=0.00 / psy_rd=0.90:0.00 / mixed_ref=1 / me_range=24 / chroma_me=0 / trellis=2 / 8x8dct=1 / cqm=0 / deadzone=21,11 / fast_pskip=0 / chroma_qp_offset=-2 / threads=6 / lookahead_threads=1 / sliced_threads=0 / nr=0 / decimate=0 / interlaced=0 / bluray_compat=0 / constrained_intra=0 / bframes=11 / b_pyramid=2 / b_adapt=2 / b_bias=0 / direct=3 / weightb=1 / open_gop=0 / weightp=2 / keyint=250 / keyint_min=23 / scenecut=40 / intra_refresh=0 / rc=crf / mbtree=0 / crf=19.5000 / qcomp=0.55 / qpmin=0 / qpmax=69 / qpstep=4 / ip_ratio=1.40 / pb_ratio=1.30 / aq=3:0.45
Language                                 : English
Default                                  : Yes
Forced                                   : No

Audio #1
ID                                       : 2
Format                                   : AC-3
Format/Info                              : Audio Coding 3
Codec ID                                 : A_AC3
Duration                                 : 2 h 6 min
Bit rate mode                            : Constant
Bit rate                                 : 192 kb/s
Channel(s)                               : 2 channels
Channel positions                        : Front: L R
Sampling rate                            : 48.0 kHz
Frame rate                               : 31.250 FPS (1536 SPF)
Bit depth                                : 16 bits
Compression mode                         : Lossy
Stream size                              : 173 MiB (6%)
Language                                 : English
Service kind                             : Complete Main
Default                                  : Yes
Forced                                   : No

Audio #2
ID                                       : 3
Format                                   : AAC
Format/Info                              : Advanced Audio Codec
Format profile                           : LC
Codec ID                                 : A_AAC-2
Duration                                 : 2 h 6 min
Bit rate                                 : 123 kb/s
Channel(s)                               : 1 channel
Channel positions                        : Front: C
Sampling rate                            : 48.0 kHz
Frame rate                               : 46.875 FPS (1024 SPF)
Compression mode                         : Lossy
Delay relative to video                  : 9 ms
Stream size                              : 111 MiB (4%)
Language                                 : Spanish
Default                                  : No
Forced                                   : No

Text #1
ID                                       : 4
Format                                   : UTF-8
Codec ID                                 : S_TEXT/UTF8
Codec ID/Info                            : UTF-8 Plain Text
Duration                                 : 2 h 4 min
Bit rate                                 : 77 b/s
Count of elements                        : 1726
Stream size                              : 70.9 KiB (0%)
Language                                 : Spanish
Default                                  : Yes
Forced                                   : No

Text #2
ID                                       : 5
Format                                   : UTF-8
Codec ID                                 : S_TEXT/UTF8
Codec ID/Info                            : UTF-8 Plain Text
Duration                                 : 1 h 34 min
Bit rate                                 : 0 b/s
Count of elements                        : 2
Stream size                              : 64.0 Bytes (0%)
Title                                    : Forzados
Language                                 : Spanish
Default                                  : No
Forced                                   : No

Text #3
ID                                       : 6
Format                                   : UTF-8
Codec ID                                 : S_TEXT/UTF8
Codec ID/Info                            : UTF-8 Plain Text
Duration                                 : 2 h 2 min
Bit rate                                 : 73 b/s
Count of elements                        : 1673
Stream size                              : 65.9 KiB (0%)
Language                                 : English
Default                                  : No
Forced                                   : No

Text #4
ID                                       : 7
Format                                   : VobSub
Muxing mode                              : zlib
Codec ID                                 : S_VOBSUB
Codec ID/Info                            : Picture based subtitle format used on DVDs
Duration                                 : 2 h 4 min
Bit rate                                 : 4 952 b/s
Count of elements                        : 1726
Stream size                              : 4.41 MiB (0%)
Language                                 : Spanish
Default                                  : No
Forced                                   : No

Text #5
ID                                       : 8
Format                                   : VobSub
Muxing mode                              : zlib
Codec ID                                 : S_VOBSUB
Codec ID/Info                            : Picture based subtitle format used on DVDs
Duration                                 : 2 h 2 min
Bit rate                                 : 4 840 b/s
Count of elements                        : 1673
Stream size                              : 4.24 MiB (0%)
Language                                 : English
Default                                  : No
Forced                                   : No

Menu
00:00:00.000                             : en:Chapter 1
00:01:38.500                             : en:Chapter 2
00:04:36.000                             : en:Chapter 3
00:08:43.334                             : en:Chapter 4
00:11:26.668                             : en:Chapter 5
00:16:07.469                             : en:Chapter 6
00:20:29.903                             : en:Chapter 7
00:26:14.936                             : en:Chapter 8
00:30:02.770                             : en:Chapter 9
00:36:44.304                             : en:Chapter 10
00:40:08.971                             : en:Chapter 11
00:43:31.638                             : en:Chapter 12
00:49:08.705                             : en:Chapter 13
00:51:20.705                             : en:Chapter 14
00:55:51.039                             : en:Chapter 15
00:59:15.039                             : en:Chapter 16
01:04:47.573                             : en:Chapter 17
01:08:47.940                             : en:Chapter 18
01:11:32.740                             : en:Chapter 19
01:15:05.407                             : en:Chapter 20
01:19:24.075                             : en:Chapter 21
01:23:28.909                             : en:Chapter 22
01:28:09.243                             : en:Chapter 23
01:34:06.610                             : en:Chapter 24
01:37:36.710                             : en:Chapter 25
01:42:05.044                             : en:Chapter 26
01:45:59.544                             : en:Chapter 27
01:52:34.978                             : en:Chapter 28
01:56:02.312                             : en:Chapter 29
01:59:57.312                             : en:Chapter 30
02:03:31.646                             : en:Chapter 31
02:04:47.480                             : en:Chapter 32




Dvdx264 Vs Dvd Warner Home Video

Imagen
Imagen

Imagen


CAPTURAS

Imagen
Imagen
Imagen
Imagen
Imagen
Imagen
Imagen
Imagen




Enlaces de descarga

Imagen

eD2K link 1935-A.Tale.Of.Two.Cities.DVDx264.AC3.AAC[DMMD].mkv [2.67 Gb] 
Avatar de Usuario
DMMD
 
Mensajes: 505
Temas: 238
Registrado: 16 Oct 2012, 14:35

Re: A Tale of Two Cities (Jack Conway, 1935) DVDRip Dual SE

Notapor james mason » 03 Dic 2017, 14:52

Vamos con esta copia!
Muchas gracias, compañero!

Un saludo :hi:
james mason
 
Mensajes: 800
Temas: 12
Registrado: 03 Oct 2012, 10:31
Ubicación: En algún lugar de Extremadura

Re: A Tale of Two Cities (Jack Conway, 1935) DVDRip Dual SE

Notapor Guiller3 » 03 Dic 2017, 16:08

Dickens, Behrman, Colman, Owen, Rathbone... La revolución francesa... ¡Un montón de motivos para querer verla!

Muchísimas gracias, DMMD.
Avatar de Usuario
Guiller3
 
Mensajes: 227
Temas: 4
Registrado: 12 May 2013, 02:58
Ubicación: Si eres mujer, búscame en tu corazón. Si eres hombre, me hallarás en tu cabeza.

Re: A Tale of Two Cities (Jack Conway, 1935) DVDRip Dual SE

Notapor yojimbo » 03 Dic 2017, 20:03

Muchas gracias, DMMD.
Avatar de Usuario
yojimbo
 
Mensajes: 6716
Temas: 17
Registrado: 18 Oct 2012, 13:25

Re: A Tale of Two Cities (Jack Conway, 1935) DVDRip Dual SE

Notapor tonapar1 » 04 Dic 2017, 19:26

Muchas gracias por el ripeo a dmmd. Un saludo.
Avatar de Usuario
tonapar1
 
Mensajes: 2561
Registrado: 16 Oct 2012, 19:19

Re: A Tale of Two Cities (Jack Conway, 1935) DVDRip Dual SE

Notapor ciberyago » 04 Dic 2017, 19:59

Muchas gracias!
ciberyago
 
Mensajes: 1816
Temas: 3
Registrado: 20 Oct 2012, 06:26

Re: A Tale of Two Cities (Jack Conway, 1935) DVDRip Dual SE

Notapor mochilaman » 05 Dic 2017, 17:55

Una magnifica pelicula y para mi es la mejor adaptacion llevada al cine. Muchas Gracias.
Avatar de Usuario
mochilaman
 
Mensajes: 68
Registrado: 12 Mar 2017, 00:24


Volver a Cine de Reestreno

¿Quién está conectado?

Usuarios navegando por este Foro: No hay usuarios registrados visitando el Foro y 1 invitado