Knights of the Round Table (R.Thorpe,1953) DVDRip Dual SE

Los caballeros del rey arturo

Moderador: mifune

Estados Unidos Knights of the Round Table (R.Thorpe,1953) DVDRip Dual SE

Notapor Marc27 » 20 Mar 2013, 16:04

Índice de Ripeos: -

*Nota: Tenga en cuenta la calidad de cada ripeo para hacer la mejor elección. Haga click
aquí para más información.


Publicado inicialmente el: 25-01-2009
Imagen

Imagen

LOS CABALLEROS DEL
REY ARTURO

(1953)

Director: Richard Thorpe
Titulo original:
Knights of the Round Table
Nacionalidad: USA
Género: Drama - COLOR

[url=http://spanish.imdb.com/title/tt0045966/]Imagen
6,2/10

Imagen
6,5/10

Imagen


ARGUMENTO
Mientras Inglaterra pasa por un mal momento, el rey Arturo quiere devolver a su tierra la paz y el equilibrio, y para ello cuenta con la ayuda de Lancelot, un audaz caballero que luchará contra los enemigos de Arturo. Todo parece ir bien hasta que el rey descubre la relación que Lancelot ha iniciado con su esposa, la bella Ginebra.

Aventuras, traición y romance en esta producción de Richard Thorpe, todo un clásico del cine de capa y espada, adaptación libre de la leyenda artúrica. Los actores protagonistas son para quitarse el sombrero: el peripuesto Robert Taylor y la bellísima Ava Gardner. El año anterior, Taylor había participado en otro film épico, llamado Ivanhoe, también a las órdenes de Thorpe. Preciosa música de Miklós Rózsa.

"Ejemplo modélico de cine filmado con pasión, de cine serio y eficicente que no quiere hacer creer que una sucesión de secuencias espectaculares bastan para relatar una historia. Un clásico"
(Miguel Ángel Palomo: Diario El País)


INTÉRPRETES
Robert Taylor, Ava Gardner, Mel Ferrer, Anne Crawford, Stanley Baker, Felix Aylmer
Maureen Swanson, Gabriel Woolf, Anthony Forwood, Robert Urquhart, Niall MacGinnis
Ann Hanslip, Jill Clifford, Stephen Vercoe

Productor
Pandro S. Berman
Guión
Thomas Malory
Talbot Jennings
Fotografía
Stephen Dade
Freddie Young
Música
Miklós Rózsa
___________


Capturas de la copia
Imagen
Imagen
Imagen Imagen Imagen Imagen
Imagen Imagen Imagen


ENLACES

eD2K link Los Caballeros del Rey Arturo.(Richard Thorpe,1953).DVDRip.XviD.Mp3.VO+Au...usteros.com].avi [1.43 Gb] 

D.D. subs. Esp.




Imagen
_________________



Datos técnicos
Los Caballeros del Rey Arturo.(Richard Thorpe,1953).DVDRip.XviD.Mp3.VO+Aud.Spa.sinc.by.Jma32.[Distri.filibusteros.com].avi
Tamaño....: 1,463 MB (or 1,498,326 KB or 1,534,285,824 bytes)
------------------ Video ------------------
Codec.....: XviD
Duración..: 01:50:58 (166,441 fr)
Resolución: 704x272 (2.59:1) [=44:17]
Bitrate...: 1562 kb/s
Qf........: 0.326 bits/pixel
FPS.......: 25.000
------------------ Audio ------------------
Codec.....: 0x0055(MP3) ID'd as MPEG-1 Layer 3
Bitrate...: 80 kb/s, monophonic CBR - Español
Bitrate...: 192 kb/s (96/ch, stereo) CBR - Inglés
____________


NOTA
Esta película es un montaje realizado por Filibusteros, a
partir de un DVD en VO y un audio español sincronizado
por Jma32 a los cuales damos las gracias.
Filibusteros comparte y distribuye en eMule.

Compatible con reproductores DIVX de sobremesa
Calificación: Todos los públicos
Duración: 112 minutos. aprox.

Con mis saludos. Imagen
_______________
Imagen
Las fuentes de mis películas están garantizadas.
Si tienes problemas me mandas un privado.
Avatar de Usuario
Marc27
 
Mensajes: 1018
Temas: 397
Registrado: 16 Oct 2012, 16:55
Ubicación: Sentado en mi nube contemplando las estrellas

Re: Knights of the Round Table (R.Thorpe,1953) DVDRip Dual SE

Notapor cerb » 20 Mar 2013, 17:38

Gracias Marc27 :up:
cerb
 
Mensajes: 153
Temas: 1
Registrado: 27 Ene 2013, 18:09

Re: Knights of the Round Table (R.Thorpe,1953) DVDRip Dual SE

Notapor juannavarrete » 20 Mar 2013, 22:48

Gracias Marc...Imagen...Me apunto
Es necesario para su distribución, dejar las descargas obtenidas en el incoming.
(Lo que es bueno para uno, es bueno para todos)
Avatar de Usuario
juannavarrete
 
Mensajes: 1641
Temas: 534
Registrado: 16 Oct 2012, 13:21
Ubicación: En la frontera de la webtern

Re: Knights of the Round Table (R.Thorpe,1953) DVDRip Dual SE

Notapor Prudencio » 21 Mar 2013, 00:00

Descargada y compartiendo.
Muchas gracias, Marc. :hi:
Avatar de Usuario
Prudencio
 
Mensajes: 3044
Temas: 5
Registrado: 16 Oct 2012, 16:46

Re: Knights of the Round Table (R.Thorpe,1953) DVDRip Dual SE

Notapor Spanish Jhonny » 22 Mar 2013, 19:03

Muchas gracias Marc
Un saludo
Spanish Jhonny
 
Mensajes: 105
Temas: 1
Registrado: 16 Oct 2012, 23:50

Estados Unidos Knights of the Round Table (Richard Thorpe, 1953) DVDRip Dual SE

Notapor locotus » 20 Ene 2016, 03:53

Knights of the Round Table (1953)
Imagen
Mira en youtube.com
Mira en youtube.com


Publicada inicialmente por Marc27, aquí:
viewtopic.php?f=53&t=4478&p=29658&hilit=Knights+round+table#p29658

Directed by Richard Thorpe
Writing Credits: Talbot Jennings... (screenplay) &
Jan Lustig ... (screenplay) and
Noel Langley ... (screenplay)
Thomas Malory ... (based on "Le Morte D'Arthur") (as Sir Thomas Malory)
Reparto:
Robert Taylor ... Lancelot
Ava Gardner ... Guinevere
Mel Ferrer ... Arthur
Anne Crawford ... Morgan Le Fay
Stanley Baker ... Modred
Felix Aylmer ... Merlin
Maureen Swanson ... Elaine
Gabriel Woolf ... Percival
Anthony Forwood ... Gareth
Robert Urquhart ... Gawaine
Niall MacGinnis ... Green Knight
Ann Hanslip ... Nan
Jill Clifford ... Bronwyn
Stephen Vercoe ... Agravaine

Runtime: 115 min
Sound Mix: 4-Track Stereo (Western Electric Sound System)
Color: Color (Technicolor)
Aspect Ratio: 2.55 : 1


Capturas:

ImagenImagenImagenImagenImagen

ImagenImagenImagenImagenImagen


Datos:
Código: Seleccionar todo
General
Unique ID                   : 254467934672298688732861762439400030681 (0xBF70BDD4B997DBE9A6EB1C1A4B2681D9)
Complete name               : C:\Downloads\Ready\Ava Gardner\Knights Of The Round Table (1953) DVDRip.Dual.mkv
Format                      : Matroska
Format version              : Version 4 / Version 2
File size                   : 2.05 GiB
Duration                    : 1h 55mn
Overall bit rate            : 2 541 Kbps
Encoded date                : UTC 2016-01-20 03:45:29
Writing application         : mkvmerge v7.9.0 ('Birds') 64bit
Writing library             : libebml v1.3.1 + libmatroska v1.4.2

Video
ID                          : 1
Format                      : AVC
Format/Info                 : Advanced Video Codec
Format profile              : High@L4.1
Format settings, CABAC      : Yes
Format settings, ReFrames   : 5 frames
Codec ID                    : V_MPEG4/ISO/AVC
Duration                    : 1h 55mn
Bit rate                    : 2 155 Kbps
Width                       : 720 pixels
Height                      : 288 pixels
Display aspect ratio        : 2.500
Frame rate mode             : Constant
Frame rate                  : 23.976 (24000/1001) fps
Color space                 : YUV
Chroma subsampling          : 4:2:0
Bit depth                   : 8 bits
Scan type                   : Progressive
Bits/(Pixel*Frame)          : 0.433
Stream size                 : 1.74 GiB (85%)
Writing library             : x264 core 148 r2638 7599210
Encoding settings           : cabac=1 / ref=5 / deblock=1:-1:-1 / analyse=0x3:0x113 / me=umh / subme=8 / psy=1 / psy_rd=1.00:0.15 / mixed_ref=1 / me_range=16 / chroma_me=1 / trellis=1 / 8x8dct=1 / cqm=0 / deadzone=21,11 / fast_pskip=1 / chroma_qp_offset=-3 / threads=6 / lookahead_threads=1 / sliced_threads=0 / nr=0 / decimate=1 / interlaced=0 / bluray_compat=0 / constrained_intra=0 / bframes=3 / b_pyramid=2 / b_adapt=2 / b_bias=0 / direct=3 / weightb=1 / open_gop=0 / weightp=2 / keyint=240 / keyint_min=23 / scenecut=40 / intra_refresh=0 / rc_lookahead=50 / rc=2pass / mbtree=1 / bitrate=2155 / ratetol=1.0 / qcomp=0.60 / qpmin=0 / qpmax=69 / qpstep=4 / cplxblur=20.0 / qblur=0.5 / vbv_maxrate=50000 / vbv_bufsize=62500 / nal_hrd=none / filler=0 / ip_ratio=1.40 / aq=1:1.00
Language                    : English
Default                     : Yes
Forced                      : No

Audio #1
ID                          : 2
Format                      : AC-3
Format/Info                 : Audio Coding 3
Mode extension              : CM (complete main)
Format settings, Endianness : Big
Codec ID                    : A_AC3
Duration                    : 1h 55mn
Bit rate mode               : Constant
Bit rate                    : 192 Kbps
Channel(s)                  : 2 channels
Channel positions           : Front: L R
Sampling rate               : 48.0 KHz
Frame rate                  : 31.250 fps (1536 spf)
Compression mode            : Lossy
Delay relative to video     : 100ms
Stream size                 : 159 MiB (8%)
Language                    : English
Default                     : Yes
Forced                      : No

Audio #2
ID                          : 3
Format                      : AC-3
Format/Info                 : Audio Coding 3
Mode extension              : CM (complete main)
Format settings, Endianness : Big
Codec ID                    : A_AC3
Duration                    : 1h 55mn
Bit rate mode               : Constant
Bit rate                    : 192 Kbps
Channel(s)                  : 1 channel
Channel positions           : Front: C
Sampling rate               : 44.1 KHz
Frame rate                  : 28.711 fps (1536 spf)
Compression mode            : Lossy
Delay relative to video     : 100ms
Stream size                 : 159 MiB (8%)
Language                    : Spanish
Default                     : No
Forced                      : No

Text #1
ID                          : 4
Format                      : UTF-8
Codec ID                    : S_TEXT/UTF8
Codec ID/Info               : UTF-8 Plain Text
Duration                    : 1h 54mn
Bit rate                    : 52 bps
Count of elements           : 1164
Stream size                 : 44.2 KiB (0%)
Language                    : English
Default                     : No
Forced                      : No

Text #2
ID                          : 5
Format                      : UTF-8
Codec ID                    : S_TEXT/UTF8
Codec ID/Info               : UTF-8 Plain Text
Duration                    : 1h 54mn
Bit rate                    : 54 bps
Count of elements           : 1129
Stream size                 : 46.1 KiB (0%)
Language                    : Spanish
Default                     : No
Forced                      : No



Subtítulos en inglés y español incluidos dentro del contenedor
MKV, ambos subidos por Jma32.

Elink:
eD2K link Knights Of The Round Table (1953) DVDRip.Dual.mkv [2.05 Gb] 
“Si no lees los periódicos estás desinformado”.
Y si los lees estás mal informado”.
Denzel Washington.
Avatar de Usuario
locotus
 
Mensajes: 873
Temas: 430
Registrado: 16 Oct 2012, 16:18

Re: Knights of the Round Table (Richard Thorpe, 1953) DVDRip Dual SE

Notapor jail » 20 Ene 2016, 09:10

Gracias, locotus. Peliculaza incrustada en el recuerdo, con unos doblajes de cuando estos eran cosa seria.

Y también a Jma32.
jail
 
Mensajes: 4155
Temas: 6
Registrado: 18 Oct 2012, 13:34

Re: Knights of the Round Table (Richard Thorpe, 1953) DVDRip Dual SE

Notapor gatatitania » 20 Ene 2016, 10:40

¡Gracias a todos! :aplauso: :aplauso: :aplauso:
Avatar de Usuario
gatatitania
 
Mensajes: 3319
Temas: 102
Registrado: 16 Oct 2012, 16:27
Ubicación: Gatatitania es un gato hambriento, superviviente del planeta gatatitania...

Re: Knights of the Round Table (Richard Thorpe, 1953) DVDRip Dual SE

Notapor toti » 20 Ene 2016, 15:22

Muchas gracias.
toti
 
Mensajes: 147
Registrado: 02 Abr 2013, 14:51

Re: Knights of the Round Table (Richard Thorpe, 1953) DVDRip Dual SE

Notapor tuscarola » 20 Ene 2016, 16:56

Merci locotus gran película y gran doblaje para la historia.
Imagen
Imagen
Imagen
Imagen
In Memoriam:
Juan Manuel Soriano
Carmen Lombarte
Maribel Casals
Felipe Peña
Alfonso Santigosa
Rafael Navarro
Avatar de Usuario
tuscarola
 
Mensajes: 1474
Temas: 17
Registrado: 25 Dic 2012, 19:38
Ubicación: En el Tarragonés

Siguiente

Volver a Largos Clásicos

¿Quién está conectado?

Usuarios navegando por este Foro: No hay usuarios registrados visitando el Foro y 1 invitado