The Ice Follies of 1939 (Reinhold Schunzel, 1939) DVDRip VOSE

Moderador: mifune

Estados Unidos The Ice Follies of 1939 (Reinhold Schunzel, 1939) DVDRip VOSE

Notapor locotus » 23 Ago 2016, 14:04

The Ice Follies of 1939 (1939)
Imagen
Una patinadora sobre hielo pone en peligro su matrimonio
cuando se convierte en una estrella de cine.
Primera aparición en color de Joan Crawford.

IMDB
Directed by Reinhold Schünzel ... (as Reinhold Schunzel)
Writing Credits: Leonard Praskins ... (screen play) &
Florence Ryerson ... (screen play) and
Edgar Allan Woolf ... (screen play)
Leonard Praskins ... (from the story by)
James Kevin McGuinness ... (uncredited)
Reparto:
Joan Crawford ... Mary McKay
James Stewart ... Larry Hall
Lew Ayres ... Eddie Burgess
Lewis Stone ... Douglas Tolliver Jr.
The International Ice Follies... Ice Skating Troupe
Bess Ehrhardt ... Kitty Sherma
Roy Shipstad ... Roy Shipstad - Ice Follies Skater
Eddie Shipstad ... Eddie Shipstad - Ice Follies Skater
Oscar Johnson ... Oscar Johnson - Ice Follies Skater
Lionel Stander ... Mort Hodges
Charles D. Brown ... Barney

Runtime: 82 min
Sound Mix: Mono (Western Electric Sound System)
Color: Black and White | Color (Technicolor) (some sequences)
Aspect Ratio: 1.37 : 1

Capturas:

ImagenImagenImagenImagenImagen

ImagenImagenImagenImagenImagen

Datos:
Código: Seleccionar todo
General
Unique ID                                : 177780721122748895808847105737986773932 (0x85BF524988226AE7A271049B18E593AC)
Complete name                            : The Ice Follies of 1939 (1939) DVDRip.VOSE.mkv
Format                                   : Matroska
Format version                           : Version 4 / Version 2
File size                                : 1.50 GiB
Duration                                 : 1 h 22 min
Overall bit rate                         : 2 614 kb/s
Encoded date                             : UTC 2016-08-23 13:39:36
Writing application                      : mkvmerge v7.9.0 ('Birds') 32bit
Writing library                          : libebml v1.3.1 + libmatroska v1.4.2

Video
ID                                       : 1
Format                                   : AVC
Format/Info                              : Advanced Video Codec
Format profile                           : High@L4.1
Format settings, CABAC                   : Yes
Format settings, ReFrames                : 4 frames
Codec ID                                 : V_MPEG4/ISO/AVC
Duration                                 : 1 h 22 min
Bit rate                                 : 2 419 kb/s
Width                                    : 656 pixels
Height                                   : 480 pixels
Display aspect ratio                     : 4:3
Frame rate mode                          : Constant
Frame rate                               : 23.976 (24000/1001) FPS
Color space                              : YUV
Chroma subsampling                       : 4:2:0
Bit depth                                : 8 bits
Scan type                                : Progressive
Bits/(Pixel*Frame)                       : 0.320
Stream size                              : 1.39 GiB (93%)
Writing library                          : x264 core 148 r2705 3f5ed56
Encoding settings                        : cabac=1 / ref=4 / deblock=1:-1:-1 / analyse=0x3:0x133 / me=umh / subme=7 / psy=1 / psy_rd=1.00:0.15 / mixed_ref=1 / me_range=16 / chroma_me=1 / trellis=1 / 8x8dct=1 / cqm=0 / deadzone=21,11 / fast_pskip=1 / chroma_qp_offset=-3 / threads=3 / lookahead_threads=1 / sliced_threads=0 / nr=0 / decimate=1 / interlaced=0 / bluray_compat=0 / constrained_intra=0 / bframes=3 / b_pyramid=2 / b_adapt=2 / b_bias=0 / direct=3 / weightb=1 / open_gop=0 / weightp=2 / keyint=240 / keyint_min=23 / scenecut=40 / intra_refresh=0 / rc_lookahead=60 / rc=2pass / mbtree=1 / bitrate=2419 / ratetol=1.0 / qcomp=0.60 / qpmin=0 / qpmax=69 / qpstep=4 / cplxblur=20.0 / qblur=0.5 / vbv_maxrate=50000 / vbv_bufsize=62500 / nal_hrd=none / filler=0 / ip_ratio=1.40 / aq=1:1.00
Language                                 : English
Default                                  : Yes
Forced                                   : No

Audio
ID                                       : 2
Format                                   : AC-3
Format/Info                              : Audio Coding 3
Mode extension                           : CM (complete main)
Format settings, Endianness              : Big
Codec ID                                 : A_AC3
Duration                                 : 1 h 22 min
Bit rate mode                            : Constant
Bit rate                                 : 192 kb/s
Channel(s)                               : 2 channels
Channel positions                        : Front: L R
Sampling rate                            : 48.0 kHz
Frame rate                               : 31.250 FPS (1536 spf)
Compression mode                         : Lossy
Stream size                              : 113 MiB (7%)
Default                                  : Yes
Forced                                   : No

Text
ID                                       : 3
Format                                   : VobSub
Muxing mode                              : zlib
Codec ID                                 : S_VOBSUB
Codec ID/Info                            : Picture based subtitle format used on DVDs
Duration                                 : 1 h 19 min
Bit rate                                 : 1 019 b/s
Count of elements                        : 980
Stream size                              : 595 KiB (0%)
Language                                 : Spanish
Default                                  : No
Forced                                   : No


Subtítulos españoles de SargentoYork, corregidos en lo posible
y sincronizados a este ripeo.

Elink:
eD2K link The Ice Follies of 1939 (1939) DVDRip.VOSE.mkv [1.50 Gb] 
“Si no lees los periódicos estás desinformado”.
Y si los lees estás mal informado”.
Denzel Washington.
Avatar de Usuario
locotus
 
Mensajes: 873
Temas: 430
Registrado: 16 Oct 2012, 16:18

Re: The Ice Follies of 1939 (Reinhold Schunzel, 1939) DVDRip VOSE

Notapor cinefilototal » 23 Ago 2016, 14:44

¡Qué rareza tan inencontrable!... :yahoo: ¡¡Mil gracias locotus!!. :genial: :aplauso:
Avatar de Usuario
cinefilototal
 
Mensajes: 590
Registrado: 16 Oct 2012, 17:04

Re: The Ice Follies of 1939 (Reinhold Schunzel, 1939) DVDRip VOSE

Notapor jail » 23 Ago 2016, 17:14

Gracias, locotus.
Y también a SargentoYork.
jail
 
Mensajes: 4155
Temas: 6
Registrado: 18 Oct 2012, 13:34

Re: The Ice Follies of 1939 (Reinhold Schunzel, 1939) DVDRip VOSE

Notapor samueleliseu » 23 Ago 2016, 18:04

Gracias a los dos.
samuel
samueleliseu
 
Mensajes: 555
Temas: 10
Registrado: 18 Oct 2012, 08:54

Re: The Ice Follies of 1939 (Reinhold Schunzel, 1939) DVDRip VOSE

Notapor lynchmob » 23 Ago 2016, 19:51

Un millon de gracias a todos los implicados tipica pelicula que piensas que nunca la vas a conseguir INCREIBLE
lynchmob
 
Mensajes: 70
Registrado: 04 Nov 2012, 16:36

Re: The Ice Follies of 1939 (Reinhold Schunzel, 1939) DVDRip VOSE

Notapor charlie777 » 23 Ago 2016, 21:09

Excelente, buenísino muchas gracias Sr. Locotus.
charlie777
 
Mensajes: 96
Registrado: 11 May 2013, 15:25

Re: The Ice Follies of 1939 (Reinhold Schunzel, 1939) DVDRip VOSE

Notapor paljoe » 24 Ago 2016, 09:27

muchas gracias a ambos dos. ¿la Crawford patinando a todo color?. imperdible.
Avatar de Usuario
paljoe
 
Mensajes: 690
Temas: 4
Registrado: 15 Dic 2012, 23:00

Re: The Ice Follies of 1939 (Reinhold Schunzel, 1939) DVDRip VOSE

Notapor yojimbo » 24 Ago 2016, 10:14

Muchas gracias, locotus y SargentoYork.
Avatar de Usuario
yojimbo
 
Mensajes: 6795
Temas: 17
Registrado: 18 Oct 2012, 12:25

Re: The Ice Follies of 1939 (Reinhold Schunzel, 1939) DVDRip VOSE

Notapor tonapar1 » 24 Ago 2016, 14:16

Muchas gracias por el ripeo y los subs a locotus y a sargentoyork. Un saludo a ambos.
Avatar de Usuario
tonapar1
 
Mensajes: 2591
Registrado: 16 Oct 2012, 18:19

Re: The Ice Follies of 1939 (Reinhold Schunzel, 1939) DVDRip VOSE

Notapor sete » 28 Ago 2016, 14:08

Muchas gracias, SargentoYork y locotus.
:hi:
Este mundo está traicionando a la vida.
José Luis Sampedro
Avatar de Usuario
sete
 
Mensajes: 2500
Registrado: 22 Dic 2012, 15:10

Siguiente

Volver a Largos Clásicos

¿Quién está conectado?

Usuarios navegando por este Foro: No hay usuarios registrados visitando el Foro y 1 invitado