The Barkleys of Broadway (Charles Walters, 1949) DVDRip Dual SE

Vuelve a mí

Moderador: mifune

Estados Unidos The Barkleys of Broadway (Charles Walters, 1949) DVDRip Dual SE

Notapor locotus » 26 Sep 2016, 14:28

The Barkleys of Broadway (1949)
Imagen

Sinopsis
Josh Barkley (Astaire) es un bailarín de claqué que actúa con su mujer Dinah (Rogers) en el club Bouncin' the Blues, pero ella está decidida a abandonar los números musicales para ser actriz de teatro, su verdadera pasión. Esta situación provoca en la pareja tensiones tales que deciden separarse; sin embargo, Josh luchará por recuperar a su mujer. Fred Astaire y Ginger Rogers vuelven a reunirse, después de diez años, por casualidad: en principio la actriz elegida para este papel había sido Judy Garland, pero tuvo que ser sustituida por problemas de salud. (FILMAFFINITY)

Última de las diez películas reallizadas por Fred Astaire y Ginger Rogers.

IMDB
Directed by Charles Walters
Writing Credits: Betty Comden ... (original screenplay) &
Adolph Green ... (original screenplay)
Sidney Sheldon ... (contributor to screen play) (uncredited)
Reparto:
Fred Astaire ... Josh Barkley
Ginger Rogers ... Dinah Barkley
Oscar Levant ... Ezra Millar
Billie Burke ... Mrs. Livingston Belney
Gale Robbins ... Shirlene May
Jacques François... Jacques Pierre Barredout (as Jacques Francois)
George Zucco ... The Judge
Clinton Sundberg... Bert Felsher
Inez Cooper ... Pamela Driscoll
Carol Brewster ... Gloria Amboy
Wilson Wood ... Larry

Runtime: 109 min
Sound Mix: Mono (Western Electric Sound System)
Color: Color (Technicolor)
Aspect Ratio: 1.37 : 1

Capturas:
ImagenImagenImagenImagenImagen

ImagenImagenImagenImagenImagen

Datos:
Código: Seleccionar todo
General
Unique ID                                : 221720321745824918487389542927590401356 (0xA6CDC7DB7E2DD6A9A5382051F0C6A54C)
Complete name                            : The Barkleys of Broadway (1949) DVDRip.Dual.mkv
Format                                   : Matroska
Format version                           : Version 4 / Version 2
File size                                : 1.99 GiB
Duration                                 : 1 h 44 min
Overall bit rate                         : 2 729 kb/s
Encoded date                             : UTC 2016-09-24 02:48:04
Writing application                      : mkvmerge v7.9.0 ('Birds') 32bit
Writing library                          : libebml v1.3.1 + libmatroska v1.4.2

Video
ID                                       : 1
Format                                   : AVC
Format/Info                              : Advanced Video Codec
Format profile                           : High@L4.1
Format settings, CABAC                   : Yes
Format settings, ReFrames                : 4 frames
Codec ID                                 : V_MPEG4/ISO/AVC
Duration                                 : 1 h 44 min
Bit rate                                 : 2 339 kb/s
Width                                    : 656 pixels
Height                                   : 480 pixels
Display aspect ratio                     : 4:3
Frame rate mode                          : Constant
Frame rate                               : 25.000 FPS
Color space                              : YUV
Chroma subsampling                       : 4:2:0
Bit depth                                : 8 bits
Scan type                                : Progressive
Bits/(Pixel*Frame)                       : 0.297
Stream size                              : 1.71 GiB (86%)
Writing library                          : x264 core 148 r2705 3f5ed56
Encoding settings                        : cabac=1 / ref=4 / deblock=1:-1:-1 / analyse=0x3:0x133 / me=umh / subme=7 / psy=1 / psy_rd=1.00:0.15 / mixed_ref=1 / me_range=16 / chroma_me=1 / trellis=1 / 8x8dct=1 / cqm=0 / deadzone=21,11 / fast_pskip=1 / chroma_qp_offset=-3 / threads=3 / lookahead_threads=1 / sliced_threads=0 / nr=0 / decimate=1 / interlaced=0 / bluray_compat=0 / constrained_intra=0 / bframes=3 / b_pyramid=2 / b_adapt=2 / b_bias=0 / direct=3 / weightb=1 / open_gop=0 / weightp=2 / keyint=250 / keyint_min=25 / scenecut=40 / intra_refresh=0 / rc_lookahead=60 / rc=2pass / mbtree=1 / bitrate=2339 / ratetol=1.0 / qcomp=0.60 / qpmin=0 / qpmax=69 / qpstep=4 / cplxblur=20.0 / qblur=0.5 / vbv_maxrate=50000 / vbv_bufsize=62500 / nal_hrd=none / filler=0 / ip_ratio=1.40 / aq=1:1.00
Language                                 : English
Default                                  : Yes
Forced                                   : No

Audio #1
ID                                       : 2
Format                                   : AC-3
Format/Info                              : Audio Coding 3
Mode extension                           : CM (complete main)
Format settings, Endianness              : Big
Codec ID                                 : A_AC3
Duration                                 : 1 h 44 min
Bit rate mode                            : Constant
Bit rate                                 : 192 kb/s
Channel(s)                               : 1 channel
Channel positions                        : Front: C
Sampling rate                            : 48.0 kHz
Frame rate                               : 31.250 FPS (1536 spf)
Compression mode                         : Lossy
Stream size                              : 143 MiB (7%)
Language                                 : English
Default                                  : Yes
Forced                                   : No

Audio #2
ID                                       : 3
Format                                   : AC-3
Format/Info                              : Audio Coding 3
Mode extension                           : CM (complete main)
Format settings, Endianness              : Big
Codec ID                                 : A_AC3
Duration                                 : 1 h 44 min
Bit rate mode                            : Constant
Bit rate                                 : 192 kb/s
Channel(s)                               : 1 channel
Channel positions                        : Front: C
Sampling rate                            : 48.0 kHz
Frame rate                               : 31.250 FPS (1536 spf)
Compression mode                         : Lossy
Delay relative to video                  : 200 ms
Stream size                              : 143 MiB (7%)
Language                                 : Spanish
Default                                  : No
Forced                                   : No

Text #1
ID                                       : 4
Format                                   : VobSub
Muxing mode                              : zlib
Codec ID                                 : S_VOBSUB
Codec ID/Info                            : Picture based subtitle format used on DVDs
Duration                                 : 1 h 44 min
Bit rate                                 : 2 422 b/s
Count of elements                        : 1412
Stream size                              : 1.80 MiB (0%)
Language                                 : English
Default                                  : No
Forced                                   : No

Text #2
ID                                       : 5
Format                                   : VobSub
Muxing mode                              : zlib
Codec ID                                 : S_VOBSUB
Codec ID/Info                            : Picture based subtitle format used on DVDs
Duration                                 : 1 h 44 min
Bit rate                                 : 1 565 b/s
Count of elements                        : 1426
Stream size                              : 1.17 MiB (0%)
Language                                 : Spanish
Default                                  : No
Forced                                   : No


Subtítulos en inglés y español incluídos en el contenedor MKV. Ambos proceden del DVD.
Doblaje español procede de un ripeo descargado por eMule.

Elink:
eD2K link The Barkleys of Broadway (1949) DVDRip.Dual.mkv [1.99 Gb] 
Última edición por locotus el 12 Sep 2017, 00:15, editado 1 vez en total
“Si no lees los periódicos estás desinformado”.
Y si los lees estás mal informado”.
Denzel Washington.
Avatar de Usuario
locotus
 
Mensajes: 869
Temas: 430
Registrado: 16 Oct 2012, 18:18

Re: The Barkleys of Broadway (Charles Walters, 1949) DVDRip Dual SE

Notapor jail » 26 Sep 2016, 14:50

Gracias de nuevo, locotus. Saludos, monstruo.
jail
 
Mensajes: 3888
Temas: 6
Registrado: 18 Oct 2012, 15:34

Re: The Barkleys of Broadway (Charles Walters, 1949) DVDRip Dual SE

Notapor Gorkus » 26 Sep 2016, 14:54

Bravo, bravo, bravo. Y con esto se completan las diez de Astaire-Rogers. Impresionante trabajo, sí señor :hi: La perfección absoluta sería poder disponer de subtítulos en las canciones de algunas que no lo tienen. Aún así :amo:
Avatar de Usuario
Gorkus
 
Mensajes: 352
Registrado: 27 Oct 2012, 20:59

Re: The Barkleys of Broadway (Charles Walters, 1949) DVDRip Dual SE

Notapor Arthur James Hamp » 26 Sep 2016, 15:54

Gran trabajo locotus, muchas gracias :amo: :amo:
"Cuando tu cabeza dice una cosa y toda tu vida dice la otra, la cabeza siempre pierde" (Cayo Largo)
Avatar de Usuario
Arthur James Hamp
 
Mensajes: 774
Temas: 90
Registrado: 06 May 2016, 11:47

Re: The Barkleys of Broadway (Charles Walters, 1949) DVDRip Dual SE

Notapor ostrata » 26 Sep 2016, 17:58

Gracias. :)

Saludos.
ostrata
 
Mensajes: 259
Registrado: 29 Dic 2012, 15:20

Re: The Barkleys of Broadway (Charles Walters, 1949) DVDRip Dual SE

Notapor cinefilototal » 26 Sep 2016, 19:16

¿Este ripeo corresponde al dvd de warner de aquí o de USA?, ¿mejora en imagen a la edición de España?... No obstante, mil gracias. :genial: :aplauso: :aplauso: :aplauso: :amo:
Avatar de Usuario
cinefilototal
 
Mensajes: 585
Registrado: 16 Oct 2012, 19:04

Re: The Barkleys of Broadway (Charles Walters, 1949) DVDRip Dual SE

Notapor sete » 26 Sep 2016, 19:18

Muchas gracias, locotus.
:hi:
Este mundo está traicionando a la vida.
José Luis Sampedro
Avatar de Usuario
sete
 
Mensajes: 2222
Registrado: 22 Dic 2012, 17:10

Re: The Barkleys of Broadway (Charles Walters, 1949) DVDRip Dual SE

Notapor Bigford » 26 Sep 2016, 20:33

Impresionante aportación, todos estos Ginger-Astaire, muchas gracias
Bigford
 
Mensajes: 215
Registrado: 20 Abr 2015, 21:06

Re: The Barkleys of Broadway (Charles Walters, 1949) DVDRip Dual SE

Notapor tonapar1 » 29 Sep 2016, 08:16

Muchas gracias por el ripeo, locotus. Un saludo.
Avatar de Usuario
tonapar1
 
Mensajes: 2433
Registrado: 16 Oct 2012, 20:19

Re: The Barkleys of Broadway (Charles Walters, 1949) DVDRip Dual SE

Notapor yojimbo » 15 Nov 2016, 15:21

Muchas gracias, locotus.
Avatar de Usuario
yojimbo
 
Mensajes: 6448
Temas: 15
Registrado: 18 Oct 2012, 14:25

Siguiente

Volver a Largos Clásicos

¿Quién está conectado?

Usuarios navegando por este Foro: No hay usuarios registrados visitando el Foro y 3 invitados