Blue Skies (Stuart Heisler, 1946) DVDRip VOSE + Aud Esp (NS)

Cielos azules

Moderador: mifune

Estados Unidos Blue Skies (Stuart Heisler, 1946) DVDRip VOSE + Aud Esp (NS)

Notapor locotus » 06 Oct 2016, 15:50

Blue Skies (1946)
Imagen

Sinopsis
Una bailarina (Joan Caulfield) casada con el propietario de un night club (Bing Crosby), se separa de él para
ir a parar a los brazos de un amigo suyo (Fred Astaire). (FILMAFFINITY)

IMDB
Directed by Stuart Heisler
Mark Sandrich ... (uncredited)
Writing Credits: Arthur Sheekman... (screenplay)
Allan Scott ... (adaptation)
Irving Berlin ... (based on an original idea by)
Reparto:
Bing Crosby ... Johnny Adams
Fred Astaire ... Jed Potter
Joan Caulfield ... Mary O'Hara
Billy De Wolfe ... Tony
Olga San Juan ... Nita Nova
Mikhail Rasumny ... François
Frank Faylen ... Mack
Victoria Horne ... Martha - Mary Elizabeth's Nanny
Karolyn Grimes ... Mary Elizabeth Adams

Runtime: 104 min
Sound Mix: Mono (Western Electric Recording)
Color: Color (Technicolor)
Aspect Ratio: 1.37 : 1

Capturas:
ImagenImagenImagenImagenImagen

ImagenImagenImagenImagenImagen


Datos:
Código: Seleccionar todo
General
Unique ID                                : 247799696743597538171189309868879230794 (0xBA6C7C5162E78242B052549B1811B74A)
Complete name                            : Blue Skies (1946) DVDRip.VOSE.mkv
Format                                   : Matroska
Format version                           : Version 4 / Version 2
File size                                : 1.94 GiB
Duration                                 : 1 h 43 min
Overall bit rate                         : 2 684 kb/s
Encoded date                             : UTC 2016-10-04 23:44:24
Writing application                      : mkvmerge v7.9.0 ('Birds') 32bit
Writing library                          : libebml v1.3.1 + libmatroska v1.4.2

Video
ID                                       : 1
Format                                   : AVC
Format/Info                              : Advanced Video Codec
Format profile                           : High@L4.1
Format settings, CABAC                   : Yes
Format settings, ReFrames                : 4 frames
Codec ID                                 : V_MPEG4/ISO/AVC
Duration                                 : 1 h 43 min
Bit rate                                 : 2 486 kb/s
Width                                    : 656 pixels
Height                                   : 480 pixels
Display aspect ratio                     : 4:3
Frame rate mode                          : Constant
Frame rate                               : 23.976 (24000/1001) FPS
Color space                              : YUV
Chroma subsampling                       : 4:2:0
Bit depth                                : 8 bits
Scan type                                : Progressive
Bits/(Pixel*Frame)                       : 0.329
Stream size                              : 1.80 GiB (93%)
Writing library                          : x264 core 148 r2721 72d53ab
Encoding settings                        : cabac=1 / ref=4 / deblock=1:-1:-1 / analyse=0x3:0x133 / me=umh / subme=7 / psy=1 / psy_rd=1.00:0.15 / mixed_ref=1 / me_range=16 / chroma_me=1 / trellis=1 / 8x8dct=1 / cqm=0 / deadzone=21,11 / fast_pskip=1 / chroma_qp_offset=-3 / threads=3 / lookahead_threads=1 / sliced_threads=0 / nr=0 / decimate=1 / interlaced=0 / bluray_compat=0 / constrained_intra=0 / bframes=3 / b_pyramid=2 / b_adapt=2 / b_bias=0 / direct=3 / weightb=1 / open_gop=0 / weightp=2 / keyint=240 / keyint_min=23 / scenecut=40 / intra_refresh=0 / rc_lookahead=60 / rc=2pass / mbtree=1 / bitrate=2486 / ratetol=1.0 / qcomp=0.60 / qpmin=0 / qpmax=69 / qpstep=4 / cplxblur=20.0 / qblur=0.5 / vbv_maxrate=50000 / vbv_bufsize=62500 / nal_hrd=none / filler=0 / ip_ratio=1.40 / aq=1:1.00
Language                                 : English
Default                                  : Yes
Forced                                   : No

Audio
ID                                       : 2
Format                                   : AC-3
Format/Info                              : Audio Coding 3
Mode extension                           : CM (complete main)
Format settings, Endianness              : Big
Codec ID                                 : A_AC3
Duration                                 : 1 h 43 min
Bit rate mode                            : Constant
Bit rate                                 : 192 kb/s
Channel(s)                               : 2 channels
Channel positions                        : Front: L R
Sampling rate                            : 48.0 kHz
Frame rate                               : 31.250 FPS (1536 spf)
Compression mode                         : Lossy
Stream size                              : 142 MiB (7%)
Language                                 : English
Default                                  : Yes
Forced                                   : No

Text #1
ID                                       : 3
Format                                   : VobSub
Muxing mode                              : zlib
Codec ID                                 : S_VOBSUB
Codec ID/Info                            : Picture based subtitle format used on DVDs
Duration                                 : 1 h 41 min
Bit rate                                 : 2 179 b/s
Count of elements                        : 1263
Stream size                              : 1.59 MiB (0%)
Language                                 : English
Default                                  : No
Forced                                   : No

Text #2
ID                                       : 4
Format                                   : VobSub
Muxing mode                              : zlib
Codec ID                                 : S_VOBSUB
Codec ID/Info                            : Picture based subtitle format used on DVDs
Duration                                 : 1 h 43 min
Bit rate                                 : 2 008 b/s
Count of elements                        : 1327
Stream size                              : 1.48 MiB (0%)
Language                                 : Spanish
Default                                  : No
Forced                                   : No


Subtítuos en inglés y español incluídos en el contenedor MKV, ambos del DVD.

Elink:
eD2K link Blue Skies (1946) DVDRip.VOSE.mkv [1.94 Gb] 
Última edición por locotus el 07 Oct 2016, 01:44, editado 1 vez en total
“Si no lees los periódicos estás desinformado”.
Y si los lees estás mal informado”.
Denzel Washington.
Avatar de Usuario
locotus
 
Mensajes: 872
Temas: 430
Registrado: 16 Oct 2012, 17:18

Re: Blue Skies (Stuart Heisler, 1946) DVDRip VOSE

Notapor Arthur James Hamp » 06 Oct 2016, 16:07

Muchas gracias locotus :aplauso: :aplauso:
"Cuando tu cabeza dice una cosa y toda tu vida dice la otra, la cabeza siempre pierde" (Cayo Largo)
Avatar de Usuario
Arthur James Hamp
 
Mensajes: 839
Temas: 97
Registrado: 06 May 2016, 10:47

Re: Blue Skies (Stuart Heisler, 1946) DVDRip VOSE

Notapor jail » 06 Oct 2016, 17:56

Agradecido, locotus.
jail
 
Mensajes: 4028
Temas: 6
Registrado: 18 Oct 2012, 14:34

Re: Blue Skies (Stuart Heisler, 1946) DVDRip VOSE

Notapor mamma » 06 Oct 2016, 18:10

Muchísimas gracias locotus.
Un saludo
mamma
 
Mensajes: 292
Registrado: 17 Oct 2012, 12:39

Re: Blue Skies (Stuart Heisler, 1946) DVDRip VOSE

Notapor charlie777 » 06 Oct 2016, 21:50

Excelente, muchas gracias Mr. Locotus.
charlie777
 
Mensajes: 96
Registrado: 11 May 2013, 16:25

Re: Blue Skies (Stuart Heisler, 1946) DVDRip VOSE

Notapor samueleliseu » 07 Oct 2016, 08:22

Muchas gracias,Locotus.
samuel
samueleliseu
 
Mensajes: 550
Temas: 10
Registrado: 18 Oct 2012, 09:54

Re: Blue Skies (Stuart Heisler, 1946) DVDRip VOSE

Notapor paljoe » 07 Oct 2016, 11:44

fantástico ciclo musical. gracias, locotus. ésta concretamente, y hasta donde yo sé, muy poco vista.
Avatar de Usuario
paljoe
 
Mensajes: 690
Temas: 4
Registrado: 16 Dic 2012, 00:00

Re: Blue Skies (Stuart Heisler, 1946) DVDRip VOSE

Notapor oskib » 09 Oct 2016, 01:39

Muchas gracias, locotus.
oskib
 
Mensajes: 465
Temas: 1
Registrado: 16 Oct 2012, 16:37
Ubicación: San Nicolás - Argentina

Re: Blue Skies (Stuart Heisler, 1946) DVDRip VOSE

Notapor yojimbo » 27 Nov 2016, 17:57

Muchas gracias, locotus.
Avatar de Usuario
yojimbo
 
Mensajes: 6649
Temas: 17
Registrado: 18 Oct 2012, 13:25

Re: Blue Skies (Stuart Heisler, 1946) DVDRip VOSE

Notapor adelon » 11 Sep 2017, 18:52

Espero alegrar a más de uno dejando aqui el audio español que trae el DVD. No creo que exista otro doblaje en español que no sea éste:
https://www.sendspace.com/file/b5st1q

Imagino que con un paso a NTSC conservando los tonos para no gravear el audio, será suficiente. Que lo disfrutéis. Saludos.
Avatar de Usuario
adelon
 
Mensajes: 325
Registrado: 16 Oct 2012, 16:17


Volver a Largos Clásicos

¿Quién está conectado?

Usuarios navegando por este Foro: capablanca y 2 invitados