Let's Dance (Norman Z. McLeod, 1950) VHSRip VO + AE

Bailamos

Moderador: mifune

Estados Unidos Let's Dance (Norman Z. McLeod, 1950) VHSRip VO + AE

Notapor locotus » 17 Oct 2016, 05:46

Let's Dance (1950)
Imagen

Donald Elwood se encuentra después de la guerra con su antigua compañera, Kitty McNeil, quien ahora es una
viuda rica con un hijo. Ella intenta evadir a su bisabuela, que insiste en hacerla vivir conforme a los
principios de clase de su difunto esposo.

IMDB
Directed by Norman Z. McLeod ... (as Norman McLeod)
Writing Credits: Dane Lussier ... (additional dialogue)
Allan Scott
Maurice Zolotow ... (story "Little Boy Blue")
Reparto:
Betty Hutton ... Kitty McNeil
Fred Astaire ... Donald Elwood
Roland Young ... Edmund Pohlwhistle
Ruth Warrick ... Carola Everett
Lucile Watson ... Serena Everett
Gregory Moffett ... Richard 'Richie' Everett
Barton MacLane ... Larry Channock
Shepperd Strudwick ... Timothy Bryant
Melville Cooper ... Charles Wagstaffe
Harold Huber ... Marcel
George Zucco ... Judge Mackenzie
Peggy Badley ... Bubbles Malone
Virginia Toland ... Elsie

Runtime: 112 min
Sound Mix: Mono (Western Electric Recording)
Color: Color (Technicolor)
Aspect Ratio: 1.37 : 1

Capturas:

ImagenImagenImagenImagenImagen

ImagenImagenImagenImagenImagen


Datos:
Código: Seleccionar todo
General
Unique ID                                : 56741135929107238643599413473985739269 (0x2AAFF1FDA3098862202DC8E5526CBA05)
Complete name                            : Let's Dance (1950) VHSRip.mkv
Format                                   : Matroska
Format version                           : Version 2
File size                                : 1.95 GiB
Duration                                 : 1 h 51 min
Overall bit rate                         : 2 499 kb/s
Encoded date                             : UTC 2016-10-16T22:09:05Z
Writing application                      : HandBrake 20160920205808-8729a0f-master 2016092101
Writing library                          : Lavf56.1.0 / Lavf56.1.0

Video
ID                                       : 1
Format                                   : AVC
Format/Info                              : Advanced Video Codec
Format profile                           : High@L4.1
Format settings, CABAC                   : Yes
Format settings, ReFrames                : 4 frames
Codec ID                                 : V_MPEG4/ISO/AVC
Duration                                 : 1 h 51 min
Bit rate                                 : 2 304 kb/s
Width                                    : 640 pixels
Height                                   : 480 pixels
Display aspect ratio                     : 4:3
Frame rate mode                          : Constant
Frame rate                               : 29.970 (30000/1001) FPS
Color space                              : YUV
Chroma subsampling                       : 4:2:0
Bit depth                                : 8 bits
Scan type                                : Progressive
Bits/(Pixel*Frame)                       : 0.250
Stream size                              : 1.77 GiB (90%)
Writing library                          : x264 core 148 r2705 3f5ed56
Encoding settings                        : cabac=1 / ref=4 / deblock=1:0:0 / analyse=0x3:0x113 / me=hex / subme=8 / psy=1 / psy_rd=1.00:0.00 / mixed_ref=1 / me_range=16 / chroma_me=1 / trellis=1 / 8x8dct=1 / cqm=0 / deadzone=21,11 / fast_pskip=1 / chroma_qp_offset=-2 / threads=3 / lookahead_threads=1 / sliced_threads=0 / nr=0 / decimate=1 / interlaced=0 / bluray_compat=0 / constrained_intra=0 / bframes=4 / b_pyramid=2 / b_adapt=2 / b_bias=0 / direct=2 / weightb=1 / open_gop=0 / weightp=2 / keyint=300 / keyint_min=30 / scenecut=40 / intra_refresh=0 / rc_lookahead=40 / rc=2pass / mbtree=1 / bitrate=2304 / ratetol=1.0 / qcomp=0.60 / qpmin=0 / qpmax=69 / qpstep=4 / cplxblur=20.0 / qblur=0.5 / vbv_maxrate=62500 / vbv_bufsize=78125 / nal_hrd=none / filler=0 / ip_ratio=1.40 / aq=1:1.00
Default                                  : Yes
Forced                                   : No
Color range                              : Limited
Color primaries                          : BT.601 NTSC
Transfer characteristics                 : BT.709
Matrix coefficients                      : BT.601

Audio
ID                                       : 2
Format                                   : AC-3
Format/Info                              : Audio Coding 3
Mode extension                           : CM (complete main)
Format settings, Endianness              : Big
Codec ID                                 : A_AC3
Duration                                 : 1 h 51 min
Bit rate mode                            : Constant
Bit rate                                 : 192 kb/s
Channel(s)                               : 2 channels
Channel positions                        : Front: L R
Sampling rate                            : 48.0 kHz
Frame rate                               : 31.250 FPS (1536 spf)
Compression mode                         : Lossy
Delay relative to video                  : 77 ms
Stream size                              : 154 MiB (8%)
Title                                    : Stereo
Language                                 : English
Default                                  : Yes
Forced                                   : No


Código: Seleccionar todo
VHSRip de Chumpaa en AvaxHome, un mp4 con frame rate variable. Lo pasé a MKV con frame rate constante
de manera que si en el futuro aparece doblaje o subtítulos no resulte demasiado complicada la
sincronización.


Doblaje español
Código: Seleccionar todo
 Cortesía de Aguadulce.
Sustituí todos los números musicales del audio de Aguadulce por el
audio original del archivo para mejor la sonoridad.

Elink:
eD2K link Let's Dance (1950) Audio español Sincr (Aguadulce).ac3 [153.56 Mb] .


Elink:
eD2K link Let's Dance (1950) VHSRip.mkv [1.95 Gb] 


 [ Agregar los 2 enlaces a su cliente ed2k ]
Última edición por locotus el 19 Oct 2016, 13:57, editado 2 veces en total
“Si no lees los periódicos estás desinformado”.
Y si los lees estás mal informado”.
Denzel Washington.
Avatar de Usuario
locotus
 
Mensajes: 869
Temas: 430
Registrado: 16 Oct 2012, 18:18

Re: Let's Dance (Norman Z. McLeod, 1950) VHSRip VO

Notapor carliquielo » 17 Oct 2016, 08:32

:aplauso: locotus, el titulo en español es bailemos, la copia parece estupenda y esperemos a que alguien aporte los subtitulos.
carliquielo
 
Mensajes: 15
Registrado: 08 Dic 2012, 13:14

Re: Let's Dance (Norman Z. McLeod, 1950) VHSRip VO

Notapor jail » 17 Oct 2016, 10:17

Gracias, locotus. A ver si tenemos un golpe de suerte y aparecen unos subtítulos, aunque sean en afgano. Siempre habrá algún marine que nos los traduzca. :)
jail
 
Mensajes: 3888
Temas: 6
Registrado: 18 Oct 2012, 15:34

Re: Let's Dance (Norman Z. McLeod, 1950) VHSRip VO

Notapor aguadulce » 17 Oct 2016, 11:25

jail escribió:Gracias, locotus. A ver si tenemos un golpe de suerte y aparecen unos subtítulos, aunque sean en afgano. Siempre habrá algún marine que nos los traduzca. :)


locotus tengo copia doblada y la tuya parece de mejor calidad.si quieres te la mando y haces un montaje. :hi:
Avatar de Usuario
aguadulce
 
Mensajes: 548
Temas: 7
Registrado: 03 Dic 2012, 03:39
Ubicación: Madrid

Re: Let's Dance (Norman Z. McLeod, 1950) VHSRip VO

Notapor boettcher » 17 Oct 2016, 22:20

Muchas gracias por todo este ciclo Fred Astaire que nos estás trayendo, locotus :)
Avatar de Usuario
boettcher
 
Mensajes: 1445
Temas: 39
Registrado: 17 Oct 2012, 12:01

Re: Let's Dance (Norman Z. McLeod, 1950) VHSRip VO

Notapor xeneise007 » 18 Oct 2016, 05:46

Gracias Locotus, impresionante ciclo de Fred. Descargo a la espera de que aparezca "algo", :shock: :fisch: :hi:
xeneise007
 
Mensajes: 541
Registrado: 08 Ene 2013, 13:19
Ubicación: Reino de Aragón

Re: Let's Dance (Norman Z. McLeod, 1950) VHSRip VO

Notapor cinefilototal » 18 Oct 2016, 18:42

Esta película la emitieron por la segunda cadena de televisión española dentro de un ciclo dedicado al musical hace ya bastantes años; yo la tuve grabada en formato betamax, una lástima no tenerla. :(
Avatar de Usuario
cinefilototal
 
Mensajes: 585
Registrado: 16 Oct 2012, 19:04

Re: Let's Dance (Norman Z. McLeod, 1950) VHSRip VO + AE

Notapor locotus » 19 Oct 2016, 04:50

Editado el post para incluir el elink al doblaje sincronizado procedente del
archivo generosamente cedido por Aguadulce. Muchas gracias compañero.
“Si no lees los periódicos estás desinformado”.
Y si los lees estás mal informado”.
Denzel Washington.
Avatar de Usuario
locotus
 
Mensajes: 869
Temas: 430
Registrado: 16 Oct 2012, 18:18

Re: Let's Dance (Norman Z. McLeod, 1950) VHSRip VO + AE

Notapor victor1949 » 19 Oct 2016, 07:53

Muchísimas grácias, locotus y aguadulce.
Avatar de Usuario
victor1949
 
Mensajes: 1057
Temas: 31
Registrado: 17 Oct 2012, 08:13
Ubicación: Palamós / Baix Empodá

Re: Let's Dance (Norman Z. McLeod, 1950) VHSRip VO + AE

Notapor yojimbo » 19 Oct 2016, 11:42

Muchas gracias, locotus y aguadulce.
Avatar de Usuario
yojimbo
 
Mensajes: 6448
Temas: 15
Registrado: 18 Oct 2012, 14:25

Siguiente

Volver a Largos Clásicos

¿Quién está conectado?

Usuarios navegando por este Foro: No hay usuarios registrados visitando el Foro y 3 invitados