Silk Stockings (Rouben Mamoulian, 1957) BRRip Dual SE

La bella de Moscú

Moderador: mifune

Estados Unidos Silk Stockings (Rouben Mamoulian, 1957) BRRip Dual SE

Notapor locotus » 19 Oct 2016, 16:35

Silk Stockings (1957)
Imagen

La bella de Moscú, cuyo título original es Silk Stockings, es un musical dirigida por Rouben Mamoulian y protagonizada por Fred Astaire y Cyd Charisse. Una adaptación cinematográfica del musical Silk Stockings de Cole Porter, que a su vez fue una versión musical de Ninotchka, dirigida en 1939 por Ernst Lubitsch e interpretada por Greta Garbo.

Trama
La historia narra la llegada a París de una severa agente soviética, que trata de regresar a Rusia a tres
agentes que previamente fueron enviados para regresar a un pianista ruso.


IMDB
Directed by Rouben Mamoulian
Writing Credits: Leonard Gershe ... (screenplay) and
Leonard Spigelgass ... (screenplay)
Melchior Lengyel ... (suggested by "Ninotchka" by)
George S. Kaufman ... (book) &
Leueen MacGrath ... (book) (as Leueen McGrath) and
Abe Burrows ... (book)
Harry Kurnitz ... (uncredited)
Reparto:
Fred Astaire ... Steve Canfield
Cyd Charisse ... Ninotchka Yoschenko
Janis Paige ... Peggy Dayton
Peter Lorre ... Brankov
George Tobias ... Vassili Markovitch
Jules Munshin ... Bibinski
Joseph Buloff ... Ivanov
Wim Sonneveld ... Peter Ilyitch Boroff

Runtime: 117 min
Sound Mix: 4-Track Stereo | Perspecta Stereo (as Perspecta Sound®) (Westrex Recording System)
Color: Color (Metrocolor)
Aspect Ratio: 2.35 : 1

Capturas:
ImagenImagenImagenImagenImagen

ImagenImagenImagenImagenImagen


Datos:
Código: Seleccionar todo
General
Unique ID                                : 208098834415008523809188229248455027302 (0x9C8E60AE45E1D3C6A29F909C7E642A66)
Complete name                            : Silk Stockings (1957) BRRip.Dual.mkv
Format                                   : Matroska
Format version                           : Version 4 / Version 2
File size                                : 2.26 GiB
Duration                                 : 1 h 57 min
Overall bit rate                         : 2 750 kb/s
Encoded date                             : UTC 2016-10-14 17:20:37
Writing application                      : mkvmerge v7.9.0 ('Birds') 32bit
Writing library                          : libebml v1.3.1 + libmatroska v1.4.2

Video
ID                                       : 1
Format                                   : AVC
Format/Info                              : Advanced Video Codec
Format profile                           : High@L4.1
Format settings, CABAC                   : Yes
Format settings, ReFrames                : 4 frames
Codec ID                                 : V_MPEG4/ISO/AVC
Duration                                 : 1 h 57 min
Bit rate                                 : 2 361 kb/s
Width                                    : 720 pixels
Height                                   : 304 pixels
Display aspect ratio                     : 2.35:1
Frame rate mode                          : Constant
Frame rate                               : 23.976 (24000/1001) FPS
Color space                              : YUV
Chroma subsampling                       : 4:2:0
Bit depth                                : 8 bits
Scan type                                : Progressive
Bits/(Pixel*Frame)                       : 0.450
Stream size                              : 1.94 GiB (86%)
Writing library                          : x264 core 148 r2721 72d53ab
Encoding settings                        : cabac=1 / ref=4 / deblock=1:-1:-1 / analyse=0x3:0x133 / me=umh / subme=7 / psy=1 / psy_rd=1.00:0.15 / mixed_ref=1 / me_range=16 / chroma_me=1 / trellis=1 / 8x8dct=1 / cqm=0 / deadzone=21,11 / fast_pskip=1 / chroma_qp_offset=-3 / threads=3 / lookahead_threads=1 / sliced_threads=0 / nr=0 / decimate=1 / interlaced=0 / bluray_compat=0 / constrained_intra=0 / bframes=3 / b_pyramid=2 / b_adapt=2 / b_bias=0 / direct=3 / weightb=1 / open_gop=0 / weightp=2 / keyint=240 / keyint_min=23 / scenecut=40 / intra_refresh=0 / rc_lookahead=60 / rc=2pass / mbtree=1 / bitrate=2361 / ratetol=1.0 / qcomp=0.60 / qpmin=0 / qpmax=69 / qpstep=4 / cplxblur=20.0 / qblur=0.5 / vbv_maxrate=50000 / vbv_bufsize=62500 / nal_hrd=none / filler=0 / ip_ratio=1.40 / aq=1:1.00
Language                                 : English
Default                                  : Yes
Forced                                   : No

Audio #1
ID                                       : 2
Format                                   : AC-3
Format/Info                              : Audio Coding 3
Mode extension                           : CM (complete main)
Format settings, Endianness              : Big
Codec ID                                 : A_AC3
Duration                                 : 1 h 57 min
Bit rate mode                            : Constant
Bit rate                                 : 192 kb/s
Channel(s)                               : 2 channels
Channel positions                        : Front: L R
Sampling rate                            : 48.0 kHz
Frame rate                               : 31.250 FPS (1536 spf)
Compression mode                         : Lossy
Stream size                              : 161 MiB (7%)
Language                                 : English
Default                                  : Yes
Forced                                   : No

Audio #2
ID                                       : 3
Format                                   : AC-3
Format/Info                              : Audio Coding 3
Mode extension                           : CM (complete main)
Format settings, Endianness              : Big
Codec ID                                 : A_AC3
Duration                                 : 1 h 57 min
Bit rate mode                            : Constant
Bit rate                                 : 192 kb/s
Channel(s)                               : 2 channels
Channel positions                        : Front: L R
Sampling rate                            : 48.0 kHz
Frame rate                               : 31.250 FPS (1536 spf)
Compression mode                         : Lossy
Stream size                              : 161 MiB (7%)
Language                                 : Spanish
Default                                  : No
Forced                                   : No

Text #1
ID                                       : 4
Format                                   : VobSub
Muxing mode                              : zlib
Codec ID                                 : S_VOBSUB
Codec ID/Info                            : Picture based subtitle format used on DVDs
Duration                                 : 1 h 54 min
Bit rate                                 : 1 277 b/s
Count of elements                        : 1158
Stream size                              : 1.05 MiB (0%)
Language                                 : English
Default                                  : No
Forced                                   : No

Text #2
ID                                       : 5
Format                                   : VobSub
Muxing mode                              : zlib
Codec ID                                 : S_VOBSUB
Codec ID/Info                            : Picture based subtitle format used on DVDs
Duration                                 : 1 h 55 min
Bit rate                                 : 1 423 b/s
Count of elements                        : 1542
Stream size                              : 1.17 MiB (0%)
Language                                 : Spanish
Default                                  : No
Forced                                   : No


Subtítulos en inglés y español incluidos en el contenedor MKV. Los ingleses bajaron con
el archivo PublicHD y los españoles obra de Candas, pasados a español neutro.

Código: Seleccionar todo
Reducción del Bluray Rip de SADPANDA, bajando la resolución de 1280/536 (2.3880)
a 720/304 (2.3684) y el tamaño de 5.4GB a 2.26 GB con dos audios.


Elink:
eD2K link Silk Stockings (1957) BRRip.Dual.mkv [2.26 Gb] 
“Si no lees los periódicos estás desinformado”.
Y si los lees estás mal informado”.
Denzel Washington.
Avatar de Usuario
locotus
 
Mensajes: 872
Temas: 430
Registrado: 16 Oct 2012, 17:18

Re: Silk Stockings (Rouben Mamoulian, 1957) BRRip Dual SE

Notapor chuschao » 19 Oct 2016, 18:06

Maravillosa película. Maravilloso musical. Maravillosa Cyd Charisse.

O sea: una maravilla.
“Podré no estar de acuerdo con lo que dices, pero defenderé hasta la muerte tu derecho a decirlo”
Avatar de Usuario
chuschao
 
Mensajes: 4940
Temas: 411
Registrado: 13 Sep 2012, 17:40
Ubicación: En un lugar de La Alcarria.

Re: Silk Stockings (Rouben Mamoulian, 1957) BRRip Dual SE

Notapor jorobado7 » 19 Oct 2016, 18:13

mmm las piernas de cyd charisse... :genial:
jorobado7
 
Mensajes: 1065
Temas: 116
Registrado: 16 Oct 2012, 14:08

Re: Silk Stockings (Rouben Mamoulian, 1957) BRRip Dual SE

Notapor Nuevamente » 19 Oct 2016, 19:15

¡Qué maravilla! Yo la tengo grabada y la he visto varias veces a lo largo de los años. Muchas gracias a todos los que han hecho posible que muchos la conozcan ahora!!
Nuevamente
 
Mensajes: 70
Registrado: 15 Oct 2013, 02:32

Re: Silk Stockings (Rouben Mamoulian, 1957) BRRip Dual SE

Notapor victor1949 » 19 Oct 2016, 20:33

¡¡No me canso de darte las grácias, locotus !!
Avatar de Usuario
victor1949
 
Mensajes: 1078
Temas: 31
Registrado: 17 Oct 2012, 07:13
Ubicación: Palamós / Baix Empodá

Re: Silk Stockings (Rouben Mamoulian, 1957) BRRip Dual SE

Notapor jail » 19 Oct 2016, 23:09

Gracias, locotus y Candas.
jail
 
Mensajes: 4028
Temas: 6
Registrado: 18 Oct 2012, 14:34

Re: Silk Stockings (Rouben Mamoulian, 1957) BRRip Dual SE

Notapor tonapar1 » 20 Oct 2016, 02:04

Muchas gracias por el ripeo a locotus y candas. Un saludo a ambos.
Avatar de Usuario
tonapar1
 
Mensajes: 2542
Registrado: 16 Oct 2012, 19:19

Re: Silk Stockings (Rouben Mamoulian, 1957) BRRip Dual SE

Notapor xeneise007 » 20 Oct 2016, 04:44

Gracias Locotus, sigo renovando filmoteca. :aplauso:
xeneise007
 
Mensajes: 569
Registrado: 08 Ene 2013, 12:19
Ubicación: Reino de Aragón

Re: Silk Stockings (Rouben Mamoulian, 1957) BRRip Dual SE

Notapor sete » 20 Oct 2016, 14:37

Muchas gracias, locotus y Candas.
:hi:
Este mundo está traicionando a la vida.
José Luis Sampedro
Avatar de Usuario
sete
 
Mensajes: 2384
Registrado: 22 Dic 2012, 16:10

Re: Silk Stockings (Rouben Mamoulian, 1957) BRRip Dual SE

Notapor yojimbo » 31 Dic 2016, 21:38

Muchas gracias, locotus y candas.
Avatar de Usuario
yojimbo
 
Mensajes: 6649
Temas: 17
Registrado: 18 Oct 2012, 13:25

Siguiente

Volver a Largos Clásicos

¿Quién está conectado?

Usuarios navegando por este Foro: boettcher, eduga, hel y 1 invitado