Star of Midnight (Stephen Roberts, 1935) DVDRip Dual SE

Estrella de medianoche

Moderador: mifune

Estados Unidos Star of Midnight (Stephen Roberts, 1935) DVDRip Dual SE

Notapor locotus » 28 Oct 2016, 22:49

Índice de Ripeos: -
DVDRip Dual SE publicado por locotus
DVDRip Dual SE publicado por Mercedes

*Nota: Tenga en cuenta la calidad de cada ripeo para hacer la mejor elección. Haga click aquí para más información.

Star of Midnight (1935)
Imagen

Sinopsis:
Tim Winthrop pide a su amigo abogado y detective, Clay Dalzell, que encuentre a su novia Alice, la cual lleva un año desaparecida. Cuando van al teatro Tim reconoce a Alice como la estrella de la obra pero ella huye otra vez. Al final Clay descubre que Alice puede salvar a un hombre de la silla eléctrica. Pero primero, con la ayuda de su novia, tiene que encontrar a la chica y al verdadero asesino. (FILMAFFINITY)

IMDB
Directed by Stephen Roberts
Writing Credits: Howard J. Green ... (screenplay) &
Anthony Veiller ... (screenplay) and
Edward Kaufman ... (screenplay)
Arthur Somers Roche ... (novel)
Reparto:
William Powell ... Clay 'Dal' Dalzell
Ginger Rogers ... Donna Mantin
Paul Kelly ... Jimmy 'Jim' Kinland
Gene Lockhart ... Horatio Swayne
Ralph Morgan ... Roger Classon
Leslie Fenton ... Tim Winthrop
J. Farrell MacDonald ... Police Inspector Doremus
Russell Hopton ... Tommy Tennant
Vivien Oakland ... Jerry Classon
Robert Emmett O'Connor ... Police Sgt. Cleary

Runtime: 90 min
Sound Mix: Mono (RCA Victor System)
Color: Black and White
Aspect Ratio: 1.37 : 1

Capturas:
ImagenImagenImagenImagenImagen

ImagenImagenImagenImagenImagen


Datos:
Código: Seleccionar todo
General
Unique ID                                : 174831116679242982185784735584668463512 (0x83873F8F6E22104B9772D85BC1C9B198)
Complete name                            : Star of Midnight (1935) DVDRip.Dual.mkv
Format                                   : Matroska
Format version                           : Version 4 / Version 2
File size                                : 1.72 GiB
Duration                                 : 1 h 29 min
Overall bit rate                         : 2 743 kb/s
Encoded date                             : UTC 2016-10-25 22:47:27
Writing application                      : mkvmerge v7.9.0 ('Birds') 32bit
Writing library                          : libebml v1.3.1 + libmatroska v1.4.2

Video
ID                                       : 1
Format                                   : AVC
Format/Info                              : Advanced Video Codec
Format profile                           : High@L4.1
Format settings, CABAC                   : Yes
Format settings, ReFrames                : 4 frames
Codec ID                                 : V_MPEG4/ISO/AVC
Duration                                 : 1 h 29 min
Bit rate                                 : 2 355 kb/s
Width                                    : 656 pixels
Height                                   : 480 pixels
Display aspect ratio                     : 4:3
Frame rate mode                          : Constant
Frame rate                               : 23.976 (24000/1001) FPS
Color space                              : YUV
Chroma subsampling                       : 4:2:0
Bit depth                                : 8 bits
Scan type                                : Progressive
Bits/(Pixel*Frame)                       : 0.312
Stream size                              : 1.48 GiB (86%)
Writing library                          : x264 core 148 r2721 72d53ab
Encoding settings                        : cabac=1 / ref=4 / deblock=1:-1:-1 / analyse=0x3:0x133 / me=umh / subme=7 / psy=1 / psy_rd=1.00:0.15 / mixed_ref=1 / me_range=16 / chroma_me=1 / trellis=1 / 8x8dct=1 / cqm=0 / deadzone=21,11 / fast_pskip=1 / chroma_qp_offset=-3 / threads=3 / lookahead_threads=1 / sliced_threads=0 / nr=0 / decimate=1 / interlaced=0 / bluray_compat=0 / constrained_intra=0 / bframes=3 / b_pyramid=2 / b_adapt=2 / b_bias=0 / direct=3 / weightb=1 / open_gop=0 / weightp=2 / keyint=240 / keyint_min=23 / scenecut=40 / intra_refresh=0 / rc_lookahead=60 / rc=2pass / mbtree=1 / bitrate=2355 / ratetol=1.0 / qcomp=0.60 / qpmin=0 / qpmax=69 / qpstep=4 / cplxblur=20.0 / qblur=0.5 / vbv_maxrate=50000 / vbv_bufsize=62500 / nal_hrd=none / filler=0 / ip_ratio=1.40 / aq=1:1.00
Language                                 : English
Default                                  : Yes
Forced                                   : No

Audio #1
ID                                       : 2
Format                                   : AC-3
Format/Info                              : Audio Coding 3
Mode extension                           : CM (complete main)
Format settings, Endianness              : Big
Codec ID                                 : A_AC3
Duration                                 : 1 h 29 min
Bit rate mode                            : Constant
Bit rate                                 : 192 kb/s
Channel(s)                               : 2 channels
Channel positions                        : Front: L R
Sampling rate                            : 48.0 kHz
Frame rate                               : 31.250 FPS (1536 spf)
Compression mode                         : Lossy
Stream size                              : 123 MiB (7%)
Language                                 : English
Default                                  : Yes
Forced                                   : No

Audio #2
ID                                       : 3
Format                                   : AC-3
Format/Info                              : Audio Coding 3
Mode extension                           : CM (complete main)
Format settings, Endianness              : Big
Codec ID                                 : A_AC3
Duration                                 : 1 h 29 min
Bit rate mode                            : Constant
Bit rate                                 : 192 kb/s
Channel(s)                               : 2 channels
Channel positions                        : Front: L R
Sampling rate                            : 48.0 kHz
Frame rate                               : 31.250 FPS (1536 spf)
Compression mode                         : Lossy
Stream size                              : 123 MiB (7%)
Language                                 : Spanish
Default                                  : No
Forced                                   : No

Text
ID                                       : 4
Format                                   : VobSub
Muxing mode                              : zlib
Codec ID                                 : S_VOBSUB
Codec ID/Info                            : Picture based subtitle format used on DVDs
Duration                                 : 1 h 27 min
Bit rate                                 : 2 279 b/s
Count of elements                        : 1885
Stream size                              : 1.43 MiB (0%)
Language                                 : English
Default                                  : No
Forced                                   : No




Subtítulos en inglés (custom) incluídos en el contenedor MKV. Son unas dos mil líneas
lo que me obligó a huir hacia la derecha.

Elink:
eD2K link Star of Midnight (1935) DVDRip.Dual.mkv [1.72 Gb] 
“Si no lees los periódicos estás desinformado”.
Y si los lees estás mal informado”.
Denzel Washington.
Avatar de Usuario
locotus
 
Mensajes: 872
Temas: 430
Registrado: 16 Oct 2012, 18:18

Re: Star of Midnight (Stephen Roberts, 1935) DVDRip Dual SI

Notapor Graveland » 28 Oct 2016, 23:24

Gracias, locotus.

Por cierto, ha sido editada en DVD.
Avatar de Usuario
Graveland
 
Mensajes: 2067
Temas: 289
Registrado: 22 Nov 2012, 16:30

Re: Star of Midnight (Stephen Roberts, 1935) DVDRip Dual SI

Notapor jail » 29 Oct 2016, 00:12

Espero que esa huida lo fuera en sentido figurado. Por tu propia cordura. :)
Un saludo.
jail
 
Mensajes: 3959
Temas: 6
Registrado: 18 Oct 2012, 15:34

Re: Star of Midnight (Stephen Roberts, 1935) DVDRip Dual SI

Notapor locotus » 29 Oct 2016, 00:33

jail escribió:Espero que esa huida lo fuera en sentido figurado. Por tu propia cordura. :)
Un saludo.


Absolutamente, un recuerdo de la pantera rosa.
“Si no lees los periódicos estás desinformado”.
Y si los lees estás mal informado”.
Denzel Washington.
Avatar de Usuario
locotus
 
Mensajes: 872
Temas: 430
Registrado: 16 Oct 2012, 18:18

Re: Star of Midnight (Stephen Roberts, 1935) DVDRip Dual SI

Notapor sete » 29 Oct 2016, 09:20

Muchas gracias, locotus.
:hi:
Este mundo está traicionando a la vida.
José Luis Sampedro
Avatar de Usuario
sete
 
Mensajes: 2286
Registrado: 22 Dic 2012, 17:10

Re: Star of Midnight (Stephen Roberts, 1935) DVDRip Dual SI

Notapor victor1949 » 29 Oct 2016, 09:33

Muchísimas grácias, locotus.
Avatar de Usuario
victor1949
 
Mensajes: 1068
Temas: 31
Registrado: 17 Oct 2012, 08:13
Ubicación: Palamós / Baix Empodá

Re: Star of Midnight (Stephen Roberts, 1935) DVDRip Dual SI

Notapor boettcher » 29 Oct 2016, 13:04

Muchas gracias, locotus :)
Avatar de Usuario
boettcher
 
Mensajes: 1454
Temas: 39
Registrado: 17 Oct 2012, 12:01

Re: Star of Midnight (Stephen Roberts, 1935) DVDRip Dual SI

Notapor yojimbo » 29 Oct 2016, 13:19

Muchas gracias, locotus.
Avatar de Usuario
yojimbo
 
Mensajes: 6550
Temas: 17
Registrado: 18 Oct 2012, 14:25

Re: Star of Midnight (Stephen Roberts, 1935) DVDRip Dual SI

Notapor lord007 » 30 Oct 2016, 16:22

Muchísimas gracias Locotus :)
lord007
 
Mensajes: 225
Registrado: 14 Jul 2013, 10:49

Re: Star of Midnight (Stephen Roberts, 1935) DVDRip Dual SI

Notapor elrodri » 30 Oct 2016, 18:54

elrodri
 
Mensajes: 174
Temas: 4
Registrado: 24 Nov 2012, 18:54

Siguiente

Volver a Largos Clásicos

¿Quién está conectado?

Usuarios navegando por este Foro: No hay usuarios registrados visitando el Foro y 1 invitado