In Old Chicago (Henry King, 1937) DVDRip VOSI (SE)

Chicago

Moderador: mifune

Estados Unidos In Old Chicago (Henry King, 1937) DVDRip VOSI (SE)

Notapor firejuice » 07 Feb 2017, 11:49

In Old Chicago

Imagen

IMDb

Director
Henry King

Reparto
Tyrone Power, Alice Faye, Don Ameche, Alice Brady, Andy Devine, Brian Donlevy, Phyllis Brooks, Tom Brown, Sidney Blackmer, Berton Churchill, June Storey, Paul Hurst

Sinopsis

Los O'Leary son una familia de pioneros cuyos hijos mayores alcanzan poder y notoriedad en la bulliciosa ciudad de Chicago.


Capturas

Imagen

Imagen

Imagen

Imagen


Configuración:
Código: Seleccionar todo
"C:\x264\x264.exe" --preset veryslow --tune film --crf 19 --level 4.1 --output "c:\ripeo\ripeo.mkv" "c:\ripeo\ripeo.avs" --no-fast-pskip --sar 12:11


Código: Seleccionar todo
Format                                   : Matroska
Format version                           : Version 4 / Version 2
File size                                : 2.04 GiB
Duration                                 : 1h 31mn
Overall bit rate                         : 3 191 Kbps
Encoded date                             : UTC 2017-02-07 09:11:37
Writing application                      : mkvmerge v6.5.0 ('Isn't she lovely') built on Oct 20 2013 12:50:05
Writing library                          : libebml v1.3.0 + libmatroska v1.4.1

Video
ID                                       : 1
Format                                   : AVC
Format/Info                              : Advanced Video Codec
Format profile                           : High@L4.1
Format settings, CABAC                   : Yes
Format settings, ReFrames                : 16 frames
Codec ID                                 : V_MPEG4/ISO/AVC
Duration                                 : 1h 31mn
Bit rate                                 : 2 936 Kbps
Width                                    : 720 pixels
Height                                   : 576 pixels
Display aspect ratio                     : 4:3
Original display aspect ratio            : 4:3
Frame rate mode                          : Constant
Frame rate                               : 25.000 fps
Standard                                 : PAL
Color space                              : YUV
Chroma subsampling                       : 4:2:0
Bit depth                                : 8 bits
Scan type                                : Progressive
Bits/(Pixel*Frame)                       : 0.283
Stream size                              : 1.88 GiB (92%)
Writing library                          : x264 core 129 r2245+729M 1a52e03
Encoding settings                        : cabac=1 / ref=16 / deblock=1:-1:-1 / analyse=0x3:0x133 / me=umh / subme=10 / psy=1 / fade_compensate=0.00 / psy_rd=1.00:0.15 / mixed_ref=1 / me_range=24 / chroma_me=1 / trellis=2 / 8x8dct=1 / cqm=0 / deadzone=21,11 / fast_pskip=0 / chroma_qp_offset=-3 / threads=6 / lookahead_threads=1 / sliced_threads=0 / nr=0 / decimate=1 / interlaced=0 / bluray_compat=0 / constrained_intra=0 / fgo=0 / bframes=8 / b_pyramid=2 / b_adapt=2 / b_bias=0 / direct=3 / weightb=1 / open_gop=0 / weightp=2 / keyint=250 / keyint_min=25 / scenecut=40 / intra_refresh=0 / rc_lookahead=60 / rc=crf / mbtree=1 / crf=19.0 / qcomp=0.60 / qpmin=0 / qpmax=69 / qpstep=4 / ip_ratio=1.40 / aq=1:1.00
Language                                 : English
Default                                  : Yes
Forced                                   : No

Audio
ID                                       : 2
Format                                   : AC-3
Format/Info                              : Audio Coding 3
Mode extension                           : CM (complete main)
Format settings, Endianness              : Big
Codec ID                                 : A_AC3
Duration                                 : 1h 31mn
Bit rate mode                            : Constant
Bit rate                                 : 192 Kbps
Channel(s)                               : 2 channels
Channel positions                        : Front: L R
Sampling rate                            : 48.0 KHz
Bit depth                                : 16 bits
Compression mode                         : Lossy
Stream size                              : 126 MiB (6%)
Default                                  : Yes
Forced                                   : No

Text
ID                                       : 3
Format                                   : VobSub
Muxing mode                              : zlib
Codec ID                                 : S_VOBSUB
Codec ID/Info                            : The same subtitle format used on DVDs
Language                                 : English
Default                                  : Yes
Forced                                   : No




eD2K link In.old.Chicago.1937.dvdrip.x264.ac3.mkv [2.04 Gb] 
firejuice
 
Mensajes: 50
Temas: 2
Registrado: 25 Oct 2013, 14:16

Re: In Old Chicago (Henry King, 1937) DVDRip VOSI

Notapor Eddie Constanti » 07 Feb 2017, 12:42

Hola, Firejuicie.
Ésta es la versión abreviada de la película. La completa (1 hora 51 minutos), está en KG (yo la tengo) y además lleva subtítulos en español. De hecho, aquí falta todo el episodio amoroso de Power.

Si quieres la completa, me mandas un privado. Gracias.
Avatar de Usuario
Eddie Constanti
 
Mensajes: 3457
Temas: 173
Registrado: 05 Ago 2013, 21:31
Ubicación: Vallès Oriental

Re: In Old Chicago (Henry King, 1937) DVDRip VOSI

Notapor firejuice » 07 Feb 2017, 12:44

Eddie Constanti escribió:Hola, Firejuicie.
Ésta es la versión abreviada de la película. La completa (1 hora 51 minutos), está en KG (yo la tengo) y además lleva subtítulos en español. De hecho, aquí falta todo el episodio amoroso de Power.

Si quieres la completa, me mandas un privado. Gracias.


Pues ni idea de que hubiera una completa y otra que no. Vaya fail :(
firejuice
 
Mensajes: 50
Temas: 2
Registrado: 25 Oct 2013, 14:16

Re: In Old Chicago (Henry King, 1937) DVDRip VOSI

Notapor boettcher » 07 Feb 2017, 18:24

Muchas gracias, firejuice :)
Avatar de Usuario
boettcher
 
Mensajes: 1452
Temas: 39
Registrado: 17 Oct 2012, 12:01

Re: In Old Chicago (Henry King, 1937) DVDRip VOSI

Notapor elrodri » 07 Feb 2017, 20:10

A la espera de la versión larga, si es que se publica, aquí dejo los de esta versión de 91' aprox.
Saludos.

http://www.subdivx.com/X6XNDkxODcyX-in- ... -1937.html
elrodri
 
Mensajes: 174
Temas: 4
Registrado: 24 Nov 2012, 18:54

Re: In Old Chicago (Henry King, 1937) DVDRip VOSI

Notapor jail » 08 Feb 2017, 02:45

boettcher escribió:Muchas gracias, firejuice :)
jail
 
Mensajes: 3944
Temas: 6
Registrado: 18 Oct 2012, 15:34

Re: In Old Chicago (Henry King, 1937) DVDRip VOSI (SE)

Notapor tonapar1 » 13 Feb 2017, 06:47

Muchas gracias por el ripeo y los subs a firejuice y elrodri. Un saludo a ambos.
Avatar de Usuario
tonapar1
 
Mensajes: 2468
Registrado: 16 Oct 2012, 20:19

Re: In Old Chicago (Henry King, 1937) DVDRip VOSI (SE)

Notapor yojimbo » 25 Jun 2017, 13:01

Muchas gracias, firejuice y elrodri.
Avatar de Usuario
yojimbo
 
Mensajes: 6529
Temas: 16
Registrado: 18 Oct 2012, 14:25

Re: In Old Chicago (Henry King, 1937) DVDRip VOSI (SE)

Notapor RickBrice » 11 Oct 2017, 15:41

Estrenada en España como " Chicago ". Un saludo.
RickBrice
 
Mensajes: 314
Registrado: 16 Nov 2012, 22:45


Volver a Largos Clásicos

¿Quién está conectado?

Usuarios navegando por este Foro: carnicerito y 1 invitado