Raw Deal (Anthony Mann, 1948) DVDRip Dual SE

Justa venganza / Ejecutor

Moderador: mifune

Estados Unidos Raw Deal (Anthony Mann, 1948) DVDRip Dual SE

Notapor DMMD » 19 Feb 2017, 00:10

Raw Deal

Anthony Mann, 1948




Imagen

Imagen


Justa venganza / Ejecutor



Título original
Raw Deal

Año
1948

Duración
79 min.

País Imagen
Director
Anthony Mann

Guion
John C. Higgins, Leopold Atlas (Historia: Arnold B. Armstrong, Audrey Ashley)

Música
Paul Sawtell

Fotografía
John Alton (B&W)

Reparto
Dennis O'Keefe, Claire Trevor, Marsha Hunt, John Ireland, Raymond Burr, Curt Conway, Chili Williams, Regis Toomey, Whit Bissell, Cliff Clark

Productora
Edward Small Productions. Distribuida por Eagle-Lion Films

Género
Cine negro | Crimen. Celos. Serie B. Cine independiente USA

Sinopsis
Joe Sullivan está deseando salir de la prisión, en la que ha ingresado en lugar de su colega Rick, quien, además le debe 50 de los grandes. (FILMAFFINITY)



Vídeo

Encode a partir del dvd editado por Sony (Ntsc), con algún ligero retoque, la fuente de partida tampoco daba para muchas alegrías, a pesar de existir varias ediciones de dvd, ninguna esta a la altura por diferentes motivos, dejo una comparativa de alguna de dichas ediciones

Dvdx264

Imagen

Orbitmedia

Imagen

VCI

Imagen

Wild Side

Imagen


Código: Seleccionar todo
General
Unique ID                                : 197660893656012328605924197601416551755 (0x94B41A77F0BF23CFA8D6135987079D4B)
Complete name                            : C:\Program Files (x86)\eMule\Incoming\1948-Raw.Deal.DVDx264.AC3[DMMD].mkv
Format                                   : Matroska
Format version                           : Version 4 / Version 2
File size                                : 933 MiB
Duration                                 : 1 h 18 min
Overall bit rate                         : 1 661 kb/s
Movie name                               : 1948-Raw.Deal.DVDx264.AC3[DMMD]
Encoded date                             : UTC 2017-02-18 22:58:33
Writing application                      : mkvmerge v9.7.0 ('Numbers') 64bit
Writing library                          : libebml v1.3.4 + libmatroska v1.4.5
Attachments                              : 1 / 2

Video
ID                                       : 1
Format                                   : AVC
Format/Info                              : Advanced Video Codec
Format profile                           : High@L4.1
Format settings, CABAC                   : Yes
Format settings, ReFrames                : 16 frames
Codec ID                                 : V_MPEG4/ISO/AVC
Duration                                 : 1 h 18 min
Bit rate                                 : 1 275 kb/s
Width                                    : 658 pixels
Height                                   : 460 pixels
Display aspect ratio                     : 1.273
Original display aspect ratio            : 1.271
Frame rate mode                          : Constant
Frame rate                               : 23.976 (24000/1001) FPS
Color space                              : YUV
Chroma subsampling                       : 4:2:0
Bit depth                                : 8 bits
Scan type                                : Progressive
Bits/(Pixel*Frame)                       : 0.176
Stream size                              : 716 MiB (77%)
Writing library                          : x264 core 148 r2638kMod 7599210
Encoding settings                        : cabac=1 / ref=16 / deblock=1:-3:-3 / analyse=0x3:0x133 / me=umh / subme=11 / psy=1 / fade_compensate=0.00 / psy_rd=1.00:0.00 / mixed_ref=1 / me_range=32 / chroma_me=0 / trellis=2 / 8x8dct=1 / cqm=0 / deadzone=21,11 / fast_pskip=0 / chroma_qp_offset=-2 / threads=6 / lookahead_threads=1 / sliced_threads=0 / nr=0 / decimate=0 / interlaced=0 / bluray_compat=0 / constrained_intra=0 / fgo=0 / bframes=8 / b_pyramid=2 / b_adapt=2 / b_bias=0 / direct=3 / weightb=1 / open_gop=0 / weightp=2 / keyint=250 / keyint_min=23 / scenecut=40 / intra_refresh=0 / rc=crf / mbtree=0 / crf=19.0000 / qcomp=0.60 / qpmin=0 / qpmax=69 / qpstep=4 / ip_ratio=1.40 / pb_ratio=1.25 / aq=3:1.00
Language                                 : English
Default                                  : Yes
Forced                                   : No

Audio #1
ID                                       : 2
Format                                   : AC-3
Format/Info                              : Audio Coding 3
Mode extension                           : CM (complete main)
Format settings, Endianness              : Big
Codec ID                                 : A_AC3
Duration                                 : 1 h 18 min
Bit rate mode                            : Constant
Bit rate                                 : 192 kb/s
Channel(s)                               : 2 channels
Channel positions                        : Front: L R
Sampling rate                            : 48.0 kHz
Frame rate                               : 31.250 FPS (1536 spf)
Bit depth                                : 16 bits
Compression mode                         : Lossy
Stream size                              : 108 MiB (12%)
Language                                 : English
Default                                  : Yes
Forced                                   : No

Audio #2
ID                                       : 3
Format                                   : AC-3
Format/Info                              : Audio Coding 3
Mode extension                           : CM (complete main)
Format settings, Endianness              : Big
Codec ID                                 : A_AC3
Duration                                 : 1 h 18 min
Bit rate mode                            : Constant
Bit rate                                 : 192 kb/s
Channel(s)                               : 2 channels
Channel positions                        : Front: L R
Sampling rate                            : 48.0 kHz
Frame rate                               : 31.250 FPS (1536 spf)
Bit depth                                : 16 bits
Compression mode                         : Lossy
Delay relative to video                  : 300 ms
Stream size                              : 108 MiB (12%)
Language                                 : Spanish
Default                                  : No
Forced                                   : No

Text #1
ID                                       : 4
Format                                   : UTF-8
Codec ID                                 : S_TEXT/UTF8
Codec ID/Info                            : UTF-8 Plain Text
Duration                                 : 1 h 18 min
Bit rate                                 : 58 b/s
Count of elements                        : 770
Stream size                              : 33.6 KiB (0%)
Language                                 : Spanish
Default                                  : No
Forced                                   : No

Text #2
ID                                       : 5
Format                                   : UTF-8
Codec ID                                 : S_TEXT/UTF8
Codec ID/Info                            : UTF-8 Plain Text
Duration                                 : 1 h 16 min
Bit rate                                 : 57 b/s
Count of elements                        : 964
Stream size                              : 32.5 KiB (0%)
Language                                 : English
Default                                  : No
Forced                                   : No

Menu
00:00:00.000                             : en:Chapter 1
00:06:08.000                             : en:Chapter 2
00:10:37.333                             : en:Chapter 3
00:16:39.100                             : en:Chapter 4
00:19:16.600                             : en:Chapter 5
00:25:58.000                             : en:Chapter 6
00:30:21.000                             : en:Chapter 7
00:35:54.567                             : en:Chapter 8
00:39:50.867                             : en:Chapter 9
00:45:08.000                             : en:Chapter 10
00:48:20.333                             : en:Chapter 11
00:54:46.766                             : en:Chapter 12
01:01:50.199                             : en:Chapter 13
01:06:54.399                             : en:Chapter 14
01:11:32.166                             : en:Chapter 15
01:14:32.000                             : en:Chapter 16



Audio

Agradecimiento a santi por pasarme el enlace mulero para pillar el audio para la sincro en español.

Sub

He utilizado para la sincro los proporcionado por Cagney . (Mil gracias)


CAPTURAS

Imagen
Imagen
Imagen
Imagen
Imagen
Imagen
Imagen



Enlaces de descarga

Imagen

eD2K link 1948-Raw.Deal.DVDx264.AC3[DMMD].mkv [933.38 Mb] 
Última edición por DMMD el 19 Feb 2017, 08:56, editado 1 vez en total
Avatar de Usuario
DMMD
 
Mensajes: 502
Temas: 237
Registrado: 16 Oct 2012, 14:35

Re: Raw Deal (Anthony Mann, 1948) DVDRip Dual SE

Notapor Monsieur Lange » 19 Feb 2017, 00:19

Muchas gracias DMMD. Procedemos. :hi:
"¡De buena nos hemos librado! ¡Nada menos que el señorito salamanquino!

Francisco Camacho (1936). "El cura de aldea"
Avatar de Usuario
Monsieur Lange
 
Mensajes: 2919
Temas: 73
Registrado: 13 Sep 2012, 18:39
Ubicación: Cruzando las dunas

Re: Raw Deal (Anthony Mann, 1948) DVDRip Dual SE

Notapor tuscarola » 19 Feb 2017, 00:59

Muchas gracias DMMD. En la ficha de eldoblaje aparece este título protagonizado por Van Damme. Lleva algún que otro título o no existe ficha de este filme....??. Gracias. Saludos.
Imagen
Imagen
Imagen
Imagen
In Memoriam:
Juan Manuel Soriano
Carmen Lombarte
Maribel Casals
Felipe Peña
Alfonso Santigosa
Rafael Navarro
Avatar de Usuario
tuscarola
 
Mensajes: 1402
Temas: 16
Registrado: 25 Dic 2012, 20:38
Ubicación: En el Tarragonés

Re: Raw Deal (Anthony Mann, 1948) DVDRip Dual SE

Notapor felipemarlou » 19 Feb 2017, 08:06

tuscarola escribió:Muchas gracias DMMD. En la ficha de eldoblaje aparece este título protagonizado por Van Damme. Lleva algún que otro título o no existe ficha de este filme....??. Gracias. Saludos.


El filme yo diria que, salvo en un pase ochentero en TV3 con idioma catalán, nunca tuvo difusion en españa. Seguramente el titulo se confunde con Ejecutor (1985, Raw deal) con Arnold Swarzeneagger (o así).

En mi opinión el mejor filme Anthony Mann de su etapa noir.

Muchas gracias por ese necesario upgrade, DMMD. :up:
felipemarlou
 
Mensajes: 1314
Temas: 163
Registrado: 09 Ago 2013, 23:02

Re: Raw Deal (Anthony Mann, 1948) DVDRip Dual SE

Notapor samueleliseu » 19 Feb 2017, 08:32

De lo mejor cine negro de Mann.
Muchas gracias,DMMD.
samuel
samueleliseu
 
Mensajes: 550
Temas: 10
Registrado: 18 Oct 2012, 09:54

Re: Raw Deal (Anthony Mann, 1948) DVDRip Dual SE

Notapor DMMD » 19 Feb 2017, 08:55

tuscarola escribió:Muchas gracias DMMD. En la ficha de eldoblaje aparece este título protagonizado por Van Damme. Lleva algún que otro título o no existe ficha de este filme....??. Gracias. Saludos.



Si aparece también bajo el titulo "Ejecutor"

http://www.eldoblaje.com/datos/FichaPel ... 73&Orden=D


Modifico el post inicial para que aparezca. :drinks:
Avatar de Usuario
DMMD
 
Mensajes: 502
Temas: 237
Registrado: 16 Oct 2012, 14:35

Re: Raw Deal (Anthony Mann, 1948) DVDRip Dual SE

Notapor Prudencio » 19 Feb 2017, 10:23

Muchas gracias, DMMD. :hi:
Avatar de Usuario
Prudencio
 
Mensajes: 2958
Temas: 5
Registrado: 16 Oct 2012, 17:46

Re: Raw Deal (Anthony Mann, 1948) DVDRip Dual SE

Notapor sete » 19 Feb 2017, 10:49

Muchas gracias, DMMD.
:hi:
Este mundo está traicionando a la vida.
José Luis Sampedro
Avatar de Usuario
sete
 
Mensajes: 2384
Registrado: 22 Dic 2012, 16:10

Re: Raw Deal (Anthony Mann, 1948) DVDRip Dual SE

Notapor NACHO » 19 Feb 2017, 11:49

Gracias por el aporte DMMD :aplauso:
NACHO
 
Mensajes: 202
Temas: 4
Registrado: 19 Oct 2012, 21:33

Re: Raw Deal (Anthony Mann, 1948) DVDRip Dual SE

Notapor lord007 » 19 Feb 2017, 17:36

Muchísimas gracias DMMD :)
lord007
 
Mensajes: 233
Registrado: 14 Jul 2013, 09:49

Siguiente

Volver a Largos Clásicos

¿Quién está conectado?

Usuarios navegando por este Foro: Bing [Bot], eduga y 2 invitados