Pickpocket (Robert Bresson, 1959) BDRip 720p VOSE

El carterista

Moderador: mifune

Francia Pickpocket (Robert Bresson, 1959) BDRip 720p VOSE

Notapor Dardo » 18 May 2017, 09:16

Pickpocket
"El carterista"
(Robert Bresson, 1959)

Imagen

IMDB


Año de producción: 1959
País: Imagen Francia
Dirección: Robert Bresson
Intérpretes: Martin LaSalle, Marika Green, Jean Pelegri, Dolly Scal,
Pierre Leymarie, Kassagi, Pierre Étaix, César Gattegno
Guión: Robert Bresson
Fotografía: Léonce-Henri Burel (B&W)
Música: Jean-Baptiste Lully
Duración: 1 hora 16 minutos.
Género: Robos & Atracos | Drama. Romance


Sinopsis: Michel es un carterista que no roba por necesidad como tampoco lo hace por vicio; no es cleptómano, roba para darse a sí mismo un valor, porque el robo es el medio de expresar sus sentimientos. filmaffinity

Premios:
1960: Festival de Berlín: Sección oficial de largometrajes


Imagen


Datos del Ripeo


@@ Vídeo : Ripeo 720p de la edición editada en Bluray, como siempre una interpretación libre de lo que entendía era lo ideal calidad/tamaño.

@@ Doblaje en castellano: No tengo conocimiento que esta película se doblase.

@@ Subtítulos: En castellano sincronizados para esta edición en Bluray y en Inglés dentro del mkv.


Imagen


Datos Técnicos

Código: Seleccionar todo
General

Complete name                            :1959 - Pickpocket [El carterista] BDRip 720p VO [Spa & Eng subs] by Dardo.mkv
Format                                   : Matroska
Format version                           : Version 2
File size                                : 3.80 GiB
Duration                                 : 1h 15mn
Overall bit rate                         : 7 167 Kbps
Encoded date                             : UTC 2017-05-16 19:59:19
Writing application                      : mkvmerge v4.0.0 ('The Stars were mine') built on Jun  5 2010 17:44:09
Writing library                          : libebml v1.0.0 + libmatroska v1.0.0

Video
ID                                       : 1
Format                                   : AVC
Format/Info                              : Advanced Video Codec
Format profile                           : High@L4.1
Format settings, CABAC                   : Yes
Format settings, ReFrames                : 11 frames
Codec ID                                 : V_MPEG4/ISO/AVC
Duration                                 : 1h 15mn
Bit rate                                 : 6 769 Kbps
Width                                    : 984 pixels
Height                                   : 720 pixels
Display aspect ratio                     : 4:3
Frame rate mode                          : Constant
Frame rate                               : 23.976 fps
Color space                              : YUV
Chroma subsampling                       : 4:2:0
Bit depth                                : 8 bits
Scan type                                : Progressive
Bits/(Pixel*Frame)                       : 0.398
Stream size                              : 3.59 GiB (94%)
Language                                 : English
Default                                  : No
Forced                                   : No

Audio
ID                                       : 2
Format                                   : AC-3
Format/Info                              : Audio Coding 3
Mode extension                           : CM (complete main)
Format settings, Endianness              : Big
Codec ID                                 : A_AC3
Duration                                 : 1h 15mn
Bit rate mode                            : Constant
Bit rate                                 : 256 Kbps
Channel(s)                               : 1 channel
Channel positions                        : Front: C
Sampling rate                            : 48.0 KHz
Bit depth                                : 16 bits
Compression mode                         : Lossy
Delay relative to video                  : 10ms
Stream size                              : 139 MiB (4%)
Language                                 : French
Default                                  : No
Forced                                   : No

Text #1
ID                                       : 3
Format                                   : UTF-8
Codec ID                                 : S_TEXT/UTF8
Codec ID/Info                            : UTF-8 Plain Text
Language                                 : Spanish
Default                                  : No
Forced                                   : No

Text #2
ID                                       : 4
Format                                   : VobSub
Muxing mode                              : zlib
Codec ID                                 : S_VOBSUB
Codec ID/Info                            : The same subtitle format used on DVDs
Language                                 : English
Default                                  : No
Forced                                   : No



Capturas

Imagen

Imagen

Imagen

Imagen

Imagen

Enlaces

eD2K link 1959 - Pickpocket [El carterista] BDRip 720p VO [Spa & Eng subs] by Dardo.mkv [3.80 Gb] 

--------------------------

Anteriormente en CFC:
DVDRip VOSE
"Si queremos que todo siga como está, es necesario que todo cambie".
Burt Lancaster (El Gatopardo)
Avatar de Usuario
Dardo
 
Mensajes: 631
Temas: 154
Registrado: 16 Oct 2012, 16:16
Ubicación: Entre encinas y dolomías

Re: Pickpocket (Robert Bresson, 1959) BDRip 720p VOSE

Notapor mifune » 18 May 2017, 14:11

Le daremos otra oportunidad a Bresson. Gracias Dardo.
Recordad, antes de publicar cualquier tema, usad el buscador para ubicar bien vuestro aporte y/o pregunta para evitar duplicidades.
Avatar de Usuario
mifune
 
Mensajes: 5451
Temas: 760
Registrado: 02 Oct 2012, 20:48
Ubicación: Welcome to the Jungle

Re: Pickpocket (Robert Bresson, 1959) BDRip 720p VOSE

Notapor Guiller3 » 18 May 2017, 15:44

Gracias Dardo. Sea la ocasión de re-ver a Bresson con otros ojos.
Avatar de Usuario
Guiller3
 
Mensajes: 183
Temas: 4
Registrado: 12 May 2013, 03:58

Re: Pickpocket (Robert Bresson, 1959) BDRip 720p VOSE

Notapor Argos » 18 May 2017, 22:34

Muchas gracias. La veré con gusto.
Avatar de Usuario
Argos
 
Mensajes: 52
Temas: 3
Registrado: 16 Oct 2012, 16:26

Re: Pickpocket (Robert Bresson, 1959) BDRip 720p VOSE

Notapor Arthur James Hamp » 18 May 2017, 22:50

Muchas gracias Dardo. :genial: :aplauso: :aplauso:
"Cuando tu cabeza dice una cosa y toda tu vida dice la otra, la cabeza siempre pierde" (Cayo Largo)
Avatar de Usuario
Arthur James Hamp
 
Mensajes: 749
Temas: 89
Registrado: 06 May 2016, 11:47


Volver a Largos Clásicos

¿Quién está conectado?

Usuarios navegando por este Foro: beacpp y 1 invitado