Ismail Yassine Tarazane (Niazi Mostafa, 1958)DVDrip VOSI+ SE

Moderador: mifune

Egipto Ismail Yassine Tarazane (Niazi Mostafa, 1958)DVDrip VOSI+ SE

Notapor montagut » 20 May 2017, 01:21

Ismail Yassine Tarazane

Imagen

http://www.imdb.com/title/tt0355578/

Título original: Ismail Yassine Tarazane
Director: Niazi Mostafa
Año: 1958
País: Egipto
Intérpretes: Ismail Yasseen, Abdel Salam Al Nabulsy, Feyrouz, Estafan Rosti
Duración: 93 min.

Argumento: Tarzán recibe una herencia y se debe civilizar para cobrarla...

Capturas:
Imagen
Imagen
Imagen
Imagen

Datos Técnicos:
Spoiler:
General
Unique ID : 203964737006280731797024012087535591124 (0x99722DF116487CE2B09758406913DED4)
Complete name : Ismail Yassine Tarazane (1958) - v.o.s. eng. - Cutrefilms 2180.mkv
Format : Matroska
Format version : Version 4 / Version 2
File size : 1.29 GiB
Duration : 1 h 36 min
Overall bit rate : 1 918 kb/s
Movie name : Ismail Yassinne Tarazane (1958) - v.o.s. eng. - Cutrefilms 2180.mkv
Encoded date : UTC 2017-05-14 19:53:18
Writing application : mkvmerge v7.8.0 ('River Man') 64bit built on Mar 27 2015 16:31:37
Writing library : libebml v1.3.1 + libmatroska v1.4.2

Video
ID : 1
Format : MPEG-4 Visual
Format profile : Advanced Simple@L5
Format settings, BVOP : 2
Format settings, QPel : Yes
Format settings, GMC : 3 warppoints
Format settings, Matrix : Default (H.263)
Codec ID : V_MS/VFW/FOURCC / XVID
Codec ID/Hint : XviD
Duration : 1 h 36 min
Bit rate : 1 788 kb/s
Width : 608 pixels
Height : 448 pixels
Display aspect ratio : 4:3
Frame rate mode : Constant
Frame rate : 29.970 (30000/1001) FPS
Color space : YUV
Chroma subsampling : 4:2:0
Bit depth : 8 bits
Scan type : Progressive
Compression mode : Lossy
Bits/(Pixel*Frame) : 0.219
Stream size : 1.20 GiB (93%)
Writing library : XviD 1.2.1 (UTC 2008-12-04)
Default : Yes
Forced : No

Audio
ID : 2
Format : MPEG Audio
Format version : Version 1
Format profile : Layer 3
Mode : Joint stereo
Mode extension : MS Stereo
Codec ID : A_MPEG/L3
Codec ID/Hint : MP3
Duration : 1 h 36 min
Bit rate mode : Constant
Bit rate : 128 kb/s
Channel(s) : 2 channels
Sampling rate : 48.0 kHz
Frame rate : 41.667 FPS (1152 spf)
Compression mode : Lossy
Stream size : 88.2 MiB (7%)
Writing library : LAME3.97 (beta)ªªªP
Language : English
Default : Yes
Forced : Yes

Text
ID : 3
Format : UTF-8
Codec ID : S_TEXT/UTF8
Codec ID/Info : UTF-8 Plain Text
Duration : 1 h 35 min
Bit rate : 42 b/s
Count of elements : 1179
Stream size : 29.8 KiB (0%)
Default : Yes
Forced : No


ELINK:
eD2K link Ismail Yassinne Tarazane (1958) - v.o.s. eng. - Cutrefilms 2180.mkv
eD2K link Subtitulo español

 [ Agregar los 2 enlaces a su cliente ed2k ]
Última edición por montagut el 20 May 2017, 13:52, editado 1 vez en total
montagut
 
Mensajes: 226
Temas: 50
Registrado: 05 Mar 2013, 00:16

Re: Ismail Yassine Tarazane (Niazi Mostafa, 1958)DVDrip VOSI+ SE

Notapor gatatitania » 20 May 2017, 02:09

jajaja ¡Ole, ole! ¡Gracias, Montagut! :aplauso: :aplauso: :aplauso:
Avatar de Usuario
gatatitania
 
Mensajes: 3157
Temas: 98
Registrado: 16 Oct 2012, 18:27
Ubicación: Gatatitania es un gato hambriento, superviviente del planeta gatatitania...

Re: Ismail Yassine Tarazane (Niazi Mostafa, 1958)DVDrip VOSI+ SE

Notapor rdeespana » 20 May 2017, 12:51

Como "Totò Tarzan" pero en árabe...
¡Muy bueno!
rdeespana
 
Mensajes: 297
Registrado: 06 Dic 2012, 04:30

Re: Ismail Yassine Tarazane (Niazi Mostafa, 1958)DVDrip VOSI+ SE

Notapor montagut » 20 May 2017, 13:53

Habia puesto mal el elink de los subtitulos, ya lo he arreglado, este es el bueno:
eD2K link Ismail Yassine Tarazane (1958) - v.o.s. eng. - Cutrefilms 2180.srt [77.2 Kb] 
montagut
 
Mensajes: 226
Temas: 50
Registrado: 05 Mar 2013, 00:16

Re: Ismail Yassine Tarazane (Niazi Mostafa, 1958)DVDrip VOSI+ SE

Notapor Phillys » 20 May 2017, 16:37

Ay Dios mío, esto no me lo pierdo.
-Owen está muerto.
-Entonces ya nunca podré librarme de él.
Avatar de Usuario
Phillys
 
Mensajes: 833
Temas: 6
Registrado: 16 Oct 2012, 15:47
Ubicación: Vigo

Re: Ismail Yassine Tarazane (Niazi Mostafa, 1958)DVDrip VOSI+ SE

Notapor yojimbo » 20 May 2017, 20:51

¡Qué bueno, montagut!
Avatar de Usuario
yojimbo
 
Mensajes: 6533
Temas: 16
Registrado: 18 Oct 2012, 14:25


Volver a Largos Clásicos

¿Quién está conectado?

Usuarios navegando por este Foro: beacpp y 1 invitado