Appassionatamente (Giacomo Gentilomo, 1954) TVRip VOSE

La sospecha

Moderador: mifune

Italia Appassionatamente (Giacomo Gentilomo, 1954) TVRip VOSE

Notapor ignacio gonzalez » 01 Ago 2017, 08:15

La copia circula por la Red. He creado los subtítulos y traducido de oído, por lo que algún que otro gazapo habrá. Sorry.


Imagen
imdb: http://www.imdb.com/title/tt0046720/

Comentario y ficha:

Imagen


Título original
Appassionatamente
Año
1954
Duración
102 min.
País
Italia Italia
Director
Giacomo Gentilomo
Guion
Leonardo Benvenuti, Sandro Continenza, Liana Ferri (Novela: Auguste Anicet-Bourgeois, Ennery)
Música
Nino Rota, Dino Rulli
Fotografía
Anchise Brizzi (B&W)
Productora
Rizzoli Film
Reparto
Amedeo Nazzari, Myriam Bru, Vera Carmi, Andrea Checchi, Umberto Melnati, Maria Pia Casilio, Giorgio De Lullo, Rolf Tasna, Isa Barzizza

Sinopsis
Elena, de noble pero empobrecida familia, está enamorada de Carlo, pero se casa con el rico Andrea, propietario de una mina, por razones económicas. Con el tiempo, se enamora de él, pero a su prima Paola no le gusta la situación... (FILMAFFINITY)

Datos técnicos:
Código: Seleccionar todo
General
Complete name                    : F:\Incoming\Appassionatamente (Giacomo Gentilomo - 1954, Con Amedeo Nazzari).avi
Format                           : AVI
Format/Info                      : Audio Video Interleave
File size                        : 1.36 GiB
Duration                         : 1h 30mn
Overall bit rate                 : 2 164 Kbps
Writing library                  : VirtualDub build 18160/release

Video
Format                           : MPEG-4 Visual
Format settings, BVOP            : No
Format settings, QPel            : No
Format settings, GMC             : No warppoints
Format settings, Matrix          : Default (H.263)
Codec ID                         : DX50
Codec ID/Hint                    : DivX 5
Duration                         : 1h 30mn
Bit rate                         : 1 899 Kbps
Width                            : 704 pixels
Height                           : 528 pixels
Display aspect ratio             : 4/3
Frame rate                       : 25.000 fps
Resolution                       : 24 bits
Colorimetry                      : 4:2:0
Scan type                        : Progressive
Bits/(Pixel*Frame)               : 0.204
Stream size                      : 1.19 GiB (88%)
Writing library                  : DivX 5.2.1 (WaffleDay) (UTC 2004-09-08)

Audio
Format                           : AC-3
Format/Info                      : Audio Coding 3
Codec ID                         : 2000
Duration                         : 1h 30mn
Bit rate mode                    : Constant
Bit rate                         : 256 Kbps
Channel(s)                       : 2 channels
Channel positions                : L R
Sampling rate                    : 48.0 KHz
Video delay                      : 64ms
Stream size                      : 165 MiB (12%)
Alignment                        : Split accross interleaves
Interleave, duration             : 40 ms (1.00 video frame)
Interleave, preload duration     : 500 ms


Capturas:


Imagen Imagen

Imagen Imagen

Imagen Imagen

Imagen Imagen

Imagen Imagen

Imagen Imagen

Imagen Imagen

Enlaces:
Película: eD2K link Appassionatamente (Giacomo Gentilomo - 1954, Con Amedeo Nazzari).avi [1.36 Gb] 
Subtítulos en descarga directa: http://www.subdivx.com/X6XNTA4OTUxX-app ... -1954.html

Un saludo.
Ignacio.
ignacio gonzalez
 
Mensajes: 57
Temas: 28
Registrado: 17 Oct 2012, 17:19

Re: Appassionatamente (Giacomo Gentilomo, 1954) TVRip VOSE

Notapor james mason » 01 Ago 2017, 08:52

Recuerdo aquella crítica del gran José Mª Latorre!

Mil gracias, Ignacio! Excelente trabajo, compañero! :aplauso: :aplauso: :aplauso:

Un saludo :hi:
james mason
 
Mensajes: 791
Temas: 12
Registrado: 03 Oct 2012, 10:31
Ubicación: En algún lugar de Extremadura

Re: Appassionatamente (Giacomo Gentilomo, 1954) TVRip VOSE

Notapor sete » 01 Ago 2017, 09:31

Muchas gracias, ignacio gonzalez.
:hi:
Este mundo está traicionando a la vida.
José Luis Sampedro
Avatar de Usuario
sete
 
Mensajes: 2380
Registrado: 22 Dic 2012, 16:10

Re: Appassionatamente (Giacomo Gentilomo, 1954) TVRip VOSE

Notapor jail » 01 Ago 2017, 09:50

Gracias, Ignacio. Un saludo.
jail
 
Mensajes: 4028
Temas: 6
Registrado: 18 Oct 2012, 14:34

Re: Appassionatamente (Giacomo Gentilomo, 1954) TVRip VOSE

Notapor Arthur James Hamp » 01 Ago 2017, 11:06

jail escribió:Gracias, Ignacio. Un saludo.

:aplauso: :aplauso: :aplauso:
"Cuando tu cabeza dice una cosa y toda tu vida dice la otra, la cabeza siempre pierde" (Cayo Largo)
Avatar de Usuario
Arthur James Hamp
 
Mensajes: 839
Temas: 97
Registrado: 06 May 2016, 10:47

Re: Appassionatamente (Giacomo Gentilomo, 1954) TVRip VOSE

Notapor Phillys » 01 Ago 2017, 12:28

Drooooooiiiiiiiiiiiiiiiiidddddddddddddd

Gracias Ignacio
Última edición por Phillys el 01 Ago 2017, 15:22, editado 1 vez en total
-Owen está muerto.
-Entonces ya nunca podré librarme de él.
Avatar de Usuario
Phillys
 
Mensajes: 855
Temas: 6
Registrado: 16 Oct 2012, 14:47
Ubicación: Vigo

Re: Appassionatamente (Giacomo Gentilomo, 1954) TVRip VOSE

Notapor paljoe » 01 Ago 2017, 12:44

gracias, Ignacio. suculento aspecto para un, espero, no menos suculento dramón.
Avatar de Usuario
paljoe
 
Mensajes: 690
Temas: 4
Registrado: 16 Dic 2012, 00:00

Re: Appassionatamente (Giacomo Gentilomo, 1954) TVRip VOSE

Notapor Prudencio » 01 Ago 2017, 13:07

Muchas gracias, Ignacio. :hi:
Avatar de Usuario
Prudencio
 
Mensajes: 2958
Temas: 5
Registrado: 16 Oct 2012, 17:46

Re: Appassionatamente (Giacomo Gentilomo, 1954) TVRip VOSE

Notapor yojimbo » 01 Ago 2017, 14:41

Muchas gracias, ignacio gonzalez.
Avatar de Usuario
yojimbo
 
Mensajes: 6649
Temas: 17
Registrado: 18 Oct 2012, 13:25

Re: Appassionatamente (Giacomo Gentilomo, 1954) TVRip VOSE

Notapor droid » 01 Ago 2017, 16:02

ES-PEC-TA-CU-LAR lo tuyo, Ignacio. :amo: :amo: :amo: :amo: :amo: :amo:

Muchísimas gracias por la ardua tarea de traducir de oídas 1459 líneas.

Un abrazo. :hi:
Avatar de Usuario
droid
 
Mensajes: 6742
Temas: 484
Registrado: 12 Sep 2012, 02:37

Siguiente

Volver a Largos Clásicos

¿Quién está conectado?

Usuarios navegando por este Foro: No hay usuarios registrados visitando el Foro y 2 invitados