Página 1 de 2

Stolen Heaven (George Abbott, 1931) DVDRip VOSE + SP

NotaPublicado: 12 Sep 2017, 20:33
por Graveland
Hakuna (SMz), LuisFilipeBernardes, yojimbo y Graveland

CICLO PRE-CODE (IV)

Imagen

STOLEN HEAVEN (1931)
IMDB

Imagen


Directed by
George Abbott

Writers:
George Abbott (adaptation)
Dana Burnet (story)

Cast:
Nancy Carroll ... Mary
Phillips Holmes ... Joe Bartlett
Louis Calhern ... Steve Perry
Edward Keane ... Detective Morgan
Joan Carr ... Mrs. Woodbridge-Wood
G. Albert Smith ... Harvey

Cinematography by
George J. Folsey

Music Department
Leo Reisman

Costume Design by
Caroline Putnam

Imagen

Sinopsis:

Ideando un robo de 20.000$, Mary y Joe elaboran un pacto para gastar todo el dinero tontamente y luego suicidarse.


Imagen

CAPTURAS:
Imagen
Imagen
Imagen
Imagen
Imagen

DATOS:

Spoiler:
Technical specs:
General
Complete name : Stolen Heaven (1931) Nancy Carroll, Phillips Holmes.avi
Format : AVI
Format/Info : Audio Video Interleave
File size : 700 MiB
Duration : 1h 9mn
Overall bit rate : 1 406 Kbps

Video
ID : 0
Format : MPEG-4 Visual
Format profile : Simple@L3
Format settings, BVOP : No
Format settings, QPel : No
Format settings, GMC : No warppoints
Format settings, Matrix : Default (H.263)
Codec ID : XVID
Codec ID/Hint : XviD
Duration : 1h 9mn
Source duration : 1h 9mn
Bit rate : 1 265 Kbps
Width : 640 pixels
Height : 480 pixels
Display aspect ratio : 4:3
Frame rate : 23.976 fps
Color space : YUV
Chroma subsampling : 4:2:0
Bit depth : 8 bits
Scan type : Progressive
Compression mode : Lossy
Bits/(Pixel*Frame) : 0.172
Stream size : 630 MiB (90%)
Writing library : XviD 1.1.2 (UTC 2006-11-01)

Audio
ID : 1
Format : MPEG Audio
Format version : Version 1
Format profile : Layer 3
Mode : Joint stereo
Mode extension : MS Stereo
Codec ID : 55
Codec ID/Hint : MP3
Duration : 1h 9mn
Bit rate mode : Constant
Bit rate : 128 Kbps
Channel(s) : 2 channels
Sampling rate : 48.0 KHz
Compression mode : Lossy
Delay relative to video : 24ms
Stream size : 63.7 MiB (9%)
Alignment : Split accross interleaves
Interleave, duration : 24 ms (0.58 video frame)
Writing library : LAME3.96.1


Imagen


ENLACE:

eD2K link Stolen Heaven.avi [699.76 Mb] 


(No está clara la fuente original, pero todo apunta a un DVD)


SUBTÍTULOS:

http://www.opensubtitles.org/es/subtitles/6687525/stolen-heaven-pb


http://www.opensubtitles.org/es/subtitles/7104332/stolen-heaven-es


TÍTULOS DE CRÉDITO:

Hakuna (copia); LuisFilipeBernardes (subtítulos portugueses); Graveland (traducción, revisión y sincronización de subtítulos en castellano)

Re: Stolen Heaven (George Abbott, 1931) DVDRip VOSP

NotaPublicado: 12 Sep 2017, 20:43
por yojimbo
Muchas gracias, Hakuna (SMz), LuisFilipeBernardes y Graveland.

Re: Stolen Heaven (George Abbott, 1931) DVDRip VOSP

NotaPublicado: 12 Sep 2017, 22:10
por jorobado7
muchas gracias graveland :genial:

Re: Stolen Heaven (George Abbott, 1931) DVDRip VOSP

NotaPublicado: 13 Sep 2017, 00:18
por boettcher
Muchas gracias, Graveland :)

Re: Stolen Heaven (George Abbott, 1931) DVDRip VOSP

NotaPublicado: 13 Sep 2017, 08:45
por samueleliseu
La mejor película de George Abbot.Gracias,Graveland.
samuel

Re: Stolen Heaven (George Abbott, 1931) DVDRip VOSP

NotaPublicado: 13 Sep 2017, 09:03
por jail
Gracias, Hakuna (SMz), LuisFilipeBernardes, yojimbo y Graveland.

Re: Stolen Heaven (George Abbott, 1931) DVDRip VOSP

NotaPublicado: 18 Sep 2017, 11:22
por tonapar1
Muchas gracias por el ripeo y los subs a Hakuna (SMz), LuisFilipeBernardes, yojimbo y Graveland. Un saludo a todos ellos.

Re: Stolen Heaven (George Abbott, 1931) DVDRip VOSP

NotaPublicado: 22 Sep 2017, 18:42
por Graveland
Mañana publicaré los subtítulos en castellano. Les estoy dando un repaso final.

Re: Stolen Heaven (George Abbott, 1931) DVDRip VOSP

NotaPublicado: 22 Sep 2017, 21:18
por eulsus
Perfecto, Graveland, me apunto en un par de días cuando regrese a casa. :drinks:

Re: Stolen Heaven (George Abbott, 1931) DVDRip VOSE + SP

NotaPublicado: 23 Sep 2017, 15:59
por Graveland
Imagen


SUBTÍTULOS:

http://www.opensubtitles.org/es/subtitles/7104332/stolen-heaven-es


TÍTULOS DE CRÉDITO:

Graveland (traducción, revisión y sincronización de subtítulos en castellano)