Bury me Dead (Bernard Vorhaus, 1947) DVDRip VOSE

Moderador: mifune

Estados Unidos Bury me Dead (Bernard Vorhaus, 1947) DVDRip VOSE

Notapor hammett » 02 Oct 2017, 09:46

gullcottage en Cinemageddon



Imagen

Bury Me Dead (1947)
Bury Me Dead

País: EE.UU.
Duración: 68 minutos
B/N

Director: Bernard Vorhaus
Guión: Dwight V. Babcock, Karen DeWolf, Irene Winston
Productor: Charles Reisner, Benjamin Stoloff
Director de fotografía: John Alton
Música: Emil Cadkin

Más información

Reparto: Cathy O'Donnell, June Lockhart, Hugh Beaumont, Mark Daniels, Greg McClure, Milton Parsons, Virginia Farmer, Sonia Darrin, Cliff Clark, John Dehner, Sumner Getchell, Selmer Jackson, Cy Kendall, Charles Lane, Jack Perry, Brick Sullivan

Sinopsis y comentarios: Barbara Carlin asiste a su propio funeral y regresa a casa sospechando que su marido, Rod Carlin, había tratado de acabar con ella. También tiene curiosidad por saber quién es la mujer enterrada bajo su nombre. (FILMAFFINITY)

NO TODOS LOS AUTORES QUE SUFRIERON LA IGNOMINIOSA CAZA DE BRUJAS FUERON GENTE DEL RENOMBRE DE UNOS JULES DASSIN, EDWARD DMYTRIK, JOSEPH LOSEY, ETC... TAMBIÉN HUBO GENTE QUE ERAN SIMPLES ARTESANOS DE PEQUEÑAS PELÍCULAS DE SERIE B Y CUYA CARRERA NUNCA ENCABEZARÍA NINGUNA LISTA. UNO DE ELLOS FUE BERNARD VORHAUS, UN DIRECTOR CUYA PELÍCULA MÁS RECORDADA QUIZÁS SEA THREE FACES WEST (1940) CON JOHN WAYNE COMO PROTAGONISTA. SU CARRERA SE VIO TRUNCADA AL INICIO DE LA DÉCADA DE LOS 50, MOMENTO EN EL QUE APROVECHANDO QUE FILMABA UNA PELÍCULA EN ITALIA, Y EVITANDO UNA CITACIÓN DEL COMITÉ DE ACTIVIDADES ANTICOMUNISTAS, SE INSTALÓ EN INGLATERRA JUNTO A SU ESPOSA Y YA NUNCA MÁSREGRESARÍA A LOS USA NI DIRIGIRÍA PELÍCULA ALGUNA. HOY OS TRAEMOS UNA DE SUS ÚLTIMAS PELÍCULAS, UNA CINTA QUE BASA SUS BAZAS EN AVERIGUAR QUIÉN ES EL CULPABLE ENTRE UN GRUPO DE CINCO PERSONAJES. FOTOGRAFÍA DEL GRAN JOHN ALTON QUE NO SE PUEDE DISFRUTAR DEL TODO DEBIDO A LA CALIDAD DE LA COPIA Y LOS SUBTÍTULOS EN CASTELLANO.

Capturas:

Imagen

Imagen

Imagen

Imagen


Datos técnicos:
Spoiler:
Código: Seleccionar todo
General
Complete name                    : Bury.Me.Dead\Bury.Me.Dead.1947.LiMiTED.DVDRip.XviD-LiNE.avi
Format                           : AVI
Format/Info                      : Audio Video Interleave
File size                        : 697 MiB
Duration                         : 1h 8mn
Overall bit rate                 : 1 421 Kbps
Writing application              : Nandub v1.0rc2
Writing library                  : Nandub build 1852/release

Video
Format                           : MPEG-4 Visual
Format profile                   : Streaming Video@L1
Format settings, BVOP            : Yes
Format settings, QPel            : Yes
Format settings, GMC             : No warppoints
Format settings, Matrix          : Default (H.263)
Muxing mode                      : Packed bitstream
Codec ID                         : XVID
Codec ID/Hint                    : XviD
Duration                         : 1h 8mn
Bit rate                         : 1 323 Kbps
Width                            : 640 pixels
Height                           : 480 pixels
Display aspect ratio             : 4/3
Frame rate                       : 23.976 fps
Resolution                       : 24 bits
Colorimetry                      : 4:2:0
Scan type                        : Progressive
Bits/(Pixel*Frame)               : 0.180
Stream size                      : 649 MiB (93%)
Writing library                  : XviD 1.0.3 (UTC 2004-12-20)

Audio
Format                           : MPEG Audio
Format version                   : Version 1
Format profile                   : Layer 3
Codec ID                         : 55
Codec ID/Hint                    : MP3
Duration                         : 1h 8mn
Bit rate mode                    : Variable
Bit rate                         : 86.2 Kbps
Channel(s)                       : 1 channel
Sampling rate                    : 48.0 KHz
Resolution                       : 16 bits
Stream size                      : 42.3 MiB (6%)
Alignment                        : Aligned on interleaves
Interleave, duration             : 24 ms (0.58 video frame)
Interleave, preload duration     : 476 ms



Elinks:

eD2K link Bury.Me.Dead.1947.LiMiTED.DVDRip.XviD-LiNE.avi [697.16 Mb] 

Subtítulos castellanos en descarga directa: http://www.subdivx.com/X6XNDc5NzM3X-bur ... -1947.html
Avatar de Usuario
hammett
 
Mensajes: 1153
Temas: 264
Registrado: 17 Nov 2012, 16:51

Re: Bury me Dead (Bernard Vorhaus, 1947) DVDRip VOSE

Notapor jail » 02 Oct 2017, 10:35

Y también a gullcottage.
jail
 
Mensajes: 4028
Temas: 6
Registrado: 18 Oct 2012, 14:34

Re: Bury me Dead (Bernard Vorhaus, 1947) DVDRip VOSE

Notapor jorobado7 » 02 Oct 2017, 10:53

muchas gracias, un titulo muy interesante :hi:
jorobado7
 
Mensajes: 1065
Temas: 116
Registrado: 16 Oct 2012, 14:08

Re: Bury me Dead (Bernard Vorhaus, 1947) DVDRip VOSE

Notapor Prudencio » 02 Oct 2017, 11:24

Muchas gracias, hammett y gullcottage. :hi:
Avatar de Usuario
Prudencio
 
Mensajes: 2958
Temas: 5
Registrado: 16 Oct 2012, 17:46

Re: Bury me Dead (Bernard Vorhaus, 1947) DVDRip VOSE

Notapor eulsus » 02 Oct 2017, 15:27

De este director solamente conozco un título, "Lady from Louisiana", del cual tengo un buen recuerdo. Así que es una muy buena oportunidad para ir ampliando el repertorio. ;)
Muchas gracias a hammett por traerla y por la traducción y a gullcottage por el ripeo. :aplauso: :aplauso:
"Una nación no se pierde porque unos la ataquen, sino porque quienes la aman no la defienden."
Blas de Lezo y Olavarrieta
Almirante español (1689-1741)
Avatar de Usuario
eulsus
 
Mensajes: 523
Temas: 18
Registrado: 08 Abr 2015, 00:14
Ubicación: La Palma

Re: Bury me Dead (Bernard Vorhaus, 1947) DVDRip VOSE

Notapor Guiller3 » 02 Oct 2017, 15:31

David Lean ("Lawrence de Arabia", "La hija de Ryan"...) consideraba a Bernard Vorhaus, "La mayor influencia que tuve en mi vida", pues, fue él su mentor y quien le dio las primeras oportunidades de entrar al mundo del cine como editor. También William Wyler lo apreciaba muchísimo y lo tuvo como asistente de director de "Roman Holiday". Hay títulos suyos que por ser de serie B, los veíamos como complementos en las matinés de domingo, pero, recuerdo que me dejó muy buen sabor "El sorprendente Mr. X". Sobre "Bury me dead" no tenía la menor idea, pero la temática resulta bien interesante, y además, es con Cathy O'Donnell, una chica que siempre me complace ver.

Gracias Hammett y gullcotage
Avatar de Usuario
Guiller3
 
Mensajes: 222
Temas: 4
Registrado: 12 May 2013, 02:58
Ubicación: Si eres mujer, búscame en tu corazón. Si eres hombre, me hallarás en tu cabeza.

Re: Bury me Dead (Bernard Vorhaus, 1947) DVDRip VOSE

Notapor tonapar1 » 02 Oct 2017, 21:01

Muchas gracias por el ripeo y los subs a hammett y a gullcottage. Un saludo a ambos.
Avatar de Usuario
tonapar1
 
Mensajes: 2542
Registrado: 16 Oct 2012, 19:19

Re: Bury me Dead (Bernard Vorhaus, 1947) DVDRip VOSE

Notapor sete » 02 Oct 2017, 21:27

Muchas gracias, hammett y gullcottage.
:hi:
Este mundo está traicionando a la vida.
José Luis Sampedro
Avatar de Usuario
sete
 
Mensajes: 2381
Registrado: 22 Dic 2012, 16:10

Re: Bury me Dead (Bernard Vorhaus, 1947) DVDRip VOSE

Notapor ciberyago » 04 Oct 2017, 05:05

Muchas gracias!
ciberyago
 
Mensajes: 1806
Temas: 3
Registrado: 20 Oct 2012, 06:26

Re: Bury me Dead (Bernard Vorhaus, 1947) DVDRip VOSE

Notapor fruega » 05 Oct 2017, 18:55

Muchas gracias.
fruega
 
Mensajes: 198
Registrado: 19 Oct 2012, 19:41


Volver a Largos Clásicos

¿Quién está conectado?

Usuarios navegando por este Foro: No hay usuarios registrados visitando el Foro y 2 invitados