The Bachelor Party (Delbert Mann, 1957) DVDRip Dual SE

La noche de los maridos

Moderador: mifune

Estados Unidos The Bachelor Party (Delbert Mann, 1957) DVDRip Dual SE

Notapor fifole » 28 Oct 2017, 17:51

LA NOCHE DE LOS MARIDOS
(1957)


Imagen

IMDb


Producción
Hill-Hecht-Lancaster Productions / Norma Productions

Director
Delbert Mann

Guión
Paddy Chayefsky

Música
Alex North

Intérpretes
Don Murray
E.G. Marshall
Jack Warden
Philip Abbott
Larry Blyden
Patricia Smith
Carolyn Jones
Nancy Marchand

Género
Drama

Cinco compañeros de trabajo salen una noche para celebrar el próximo matrimonio de uno de ellos. A medida que avanza la noche, y con alcohol de por medio, van revelando algunas confidencias y expresando sus preocupaciones y esperanzas.

La calidad del DVD original es bastante insatisfactoria. La copia no respeta formato y el doblaje no es el original. A la espera de una mejor copia y ripeo.

Rodada en largos planos con la camara inmóvil donde los personajes cuentan sus penas, es unos de los mejores reflejos de los programas dramáticos en televisión realizados en directo de los que provienen el director y el guionista, pero a pesar de la excelente fotografía de Joseph La Shelle, le falta el atractivo de otros trabajos realistas similares de la misma época. La versión estrenada en España tiene numerosos cortes, de la larga escena en que los cinco amigos ven una película pornográfica en casa de uno de ellos a los fragmentos en que el novio confiesa que es virgen y el beso entre Chalie Samson y la anónima existencialista.
Augusto M. Torres.


Imagen


Datos técnicos:
Código: Seleccionar todo
General
Complete name               : La noche de los maridos (1957) Dual.avi
Format                      : AVI
Format/Info                 : Audio Video Interleave
File size                   : 1.09 GiB
Duration                    : 1 h 33 min
Overall bit rate            : 1 680 kb/s
Writing application         : VirtualDubMod 1.5.4.1 (build 2178/release)
Writing library             : VirtualDubMod build 2178/release

Video
ID                          : 0
Format                      : MPEG-4 Visual
Format profile              : Advanced Simple@L5
Format settings, BVOP       : 1
Format settings, QPel       : No
Format settings, GMC        : No warppoints
Format settings, Matrix     : Custom
Codec ID                    : XVID
Codec ID/Hint               : XviD
Duration                    : 1 h 33 min
Bit rate                    : 1 415 kb/s
Width                       : 640 pixels
Height                      : 480 pixels
Display aspect ratio        : 4:3
Frame rate                  : 25.000 FPS
Color space                 : YUV
Chroma subsampling          : 4:2:0
Bit depth                   : 8 bits
Scan type                   : Progressive
Compression mode            : Lossy
Bits/(Pixel*Frame)          : 0.184
Stream size                 : 943 MiB (84%)
Writing library             : XviD 64

Audio #1
ID                          : 1
Format                      : MPEG Audio
Format version              : Version 1
Format profile              : Layer 3
Mode                        : Joint stereo
Mode extension              : MS Stereo
Codec ID                    : 55
Codec ID/Hint               : MP3
Duration                    : 1 h 33 min
Bit rate mode               : Constant
Bit rate                    : 128 kb/s
Channel(s)                  : 2 channels
Sampling rate               : 48.0 kHz
Compression mode            : Lossy
Stream size                 : 85.3 MiB (8%)
Alignment                   : Aligned on interleaves
Interleave, duration        : 80  ms (2.00 video frames)
Interleave, preload duratio : 504  ms
Writing library             : LAME3.98r
Encoding settings           : -m j -V 4 -q 2 -lowpass 17 -b 128
Language                    : Espanol

Audio #2
ID                          : 2
Format                      : MPEG Audio
Format version              : Version 1
Format profile              : Layer 3
Mode                        : Joint stereo
Mode extension              : MS Stereo
Codec ID                    : 55
Codec ID/Hint               : MP3
Duration                    : 1 h 33 min
Bit rate mode               : Constant
Bit rate                    : 128 kb/s
Channel(s)                  : 2 channels
Sampling rate               : 48.0 kHz
Compression mode            : Lossy
Stream size                 : 85.3 MiB (8%)
Alignment                   : Aligned on interleaves
Interleave, duration        : 80  ms (2.00 video frames)
Interleave, preload duratio : 504  ms
Writing library             : LAME3.98r
Encoding settings           : -m j -V 4 -q 2 -lowpass 17 -b 128
Language                    : English



Imagen
Imagen
Imagen
Imagen
Imagen


eD2K link La noche de los maridos (1957) Dual.avi [1.09 Gb] 

Subtítulos en español:
http://www.subdivx.com/X6XNTE3NDcz
Avatar de Usuario
fifole
 
Mensajes: 3049
Temas: 557
Registrado: 17 Oct 2012, 18:47

Re: The Bachelor Party (Delbert Mann, 1957) DVDRip Dual SE

Notapor Arthur James Hamp » 28 Oct 2017, 18:03

Muy interesante, muchas gracias fifole. :genial: :aplauso: :aplauso:
"Cuando tu cabeza dice una cosa y toda tu vida dice la otra, la cabeza siempre pierde" (Cayo Largo)
Avatar de Usuario
Arthur James Hamp
 
Mensajes: 903
Temas: 103
Registrado: 06 May 2016, 09:47

Re: The Bachelor Party (Delbert Mann, 1957) DVDRip Dual SE

Notapor jail » 28 Oct 2017, 19:24

Agradecido, fifole.
jail
 
Mensajes: 4160
Temas: 6
Registrado: 18 Oct 2012, 13:34

Re: The Bachelor Party (Delbert Mann, 1957) DVDRip Dual SE

Notapor lord007 » 28 Oct 2017, 20:45

Muchas gracias Fifole :)
lord007
 
Mensajes: 239
Registrado: 14 Jul 2013, 08:49

Re: The Bachelor Party (Delbert Mann, 1957) DVDRip Dual SE

Notapor chuschao » 28 Oct 2017, 21:09

Para mí, junto con Network, lo mejor de lo salido de la pluma de Paddy Chayefsky.
“Podré no estar de acuerdo con lo que dices, pero defenderé hasta la muerte tu derecho a decirlo”
Avatar de Usuario
chuschao
 
Mensajes: 4964
Temas: 418
Registrado: 13 Sep 2012, 16:40
Ubicación: En un lugar de La Alcarria.

Re: The Bachelor Party (Delbert Mann, 1957) DVDRip Dual SE

Notapor james mason » 28 Oct 2017, 21:22

Lastima que no respete el formato, pero bueno, es lo que hay.
Muchas gracias, compañero.

Un saludo :hi:
james mason
 
Mensajes: 817
Temas: 12
Registrado: 03 Oct 2012, 09:31
Ubicación: En algún lugar de Extremadura

Re: The Bachelor Party (Delbert Mann, 1957) DVDRip Dual SE

Notapor mifune » 28 Oct 2017, 23:48

Gracias por el aporte, fifole.

En Noirestyle hay una copia TVRip sin cropear (eliminación de las bandas negras) que arroja un formato (AR) de 1.66.
Cine, cine, cine. Más cine, por favor...
Avatar de Usuario
mifune
 
Mensajes: 5755
Temas: 786
Registrado: 02 Oct 2012, 18:48
Ubicación: Welcome to the Jungle

Re: The Bachelor Party (Delbert Mann, 1957) DVDRip Dual SE

Notapor xeneise007 » 29 Oct 2017, 06:04

Gracias Fifole :hi:
xeneise007
 
Mensajes: 631
Registrado: 08 Ene 2013, 11:19
Ubicación: Reino de Aragón

Re: The Bachelor Party (Delbert Mann, 1957) DVDRip Dual SE

Notapor tuscarola » 29 Oct 2017, 06:44

Merci fifole.
Imagen
Imagen
Imagen
Imagen
In Memoriam:
Juan Manuel Soriano
Carmen Lombarte
Maribel Casals
Felipe Peña
Alfonso Santigosa
Rafael Navarro
Avatar de Usuario
tuscarola
 
Mensajes: 1478
Temas: 17
Registrado: 25 Dic 2012, 19:38
Ubicación: En el Tarragonés

Re: The Bachelor Party (Delbert Mann, 1957) DVDRip Dual SE

Notapor james mason » 29 Oct 2017, 08:50

mifune escribió:Gracias por el aporte, fifole.

En Noirestyle hay una copia TVRip sin cropear (eliminación de las bandas negras) que arroja un formato (AR) de 1.66.

El problema es que la copia de Noirestyle no tiene fuentes.
Va la petición. ¿Alguien que la descargara en su momento, en Noir, puede reponerla?
Gracias
james mason
 
Mensajes: 817
Temas: 12
Registrado: 03 Oct 2012, 09:31
Ubicación: En algún lugar de Extremadura

Siguiente

Volver a Largos Clásicos

¿Quién está conectado?

Usuarios navegando por este Foro: No hay usuarios registrados visitando el Foro y 2 invitados