Between Heaven and Hell (Richard Fleischer, 1956) BDRip 1080p Dual SE

Los diablos del Pacífico.

Moderador: mifune

Estados Unidos Between Heaven and Hell (Richard Fleischer, 1956) BDRip 1080p Dual SE

Notapor felipemarlou » 13 Nov 2017, 09:14

Imagen

Between Heaven and Hell (1956)
Los diablos del Pacífico

País: EE.UU.
Duración: 94 minutos
Color

Director: Richard Fleischer
Guión: Harry Brown, Francis Gwaltney
Productor: David Weisbart
Director de fotografía: Leo Tover
Música: Hugo Friedhofer

Más información

Reparto: Robert Wagner, Terry Moore, Broderick Crawford, Buddy Ebsen, Robert Keith, Brad Dexter, Mark Damon, Ken Clark, Harvey Lembeck, Skip Homeier, L.Q. Jones, Tod Andrews, Biff Elliot, Bart Burns, Ilene Brown, Scatman Crothers, Sam Edwards, Darlene Fields, Frank Gerstle, Frank Gorshin, Gregg Martell, Ray Montgomery, Boyd 'Red' Morgan, Rollin Moriyama, Scotty Morrow, Pixie Parkhurst, Tom Pittman, Bill Stevens, Carl 'Alfalfa' Switzer, Langdon A. Viracola, Dick Walsh

Sinopsis y comentarios: Sam Gifford, un terrateniente del Sur casado con la hija de un coronel, y que trata mal a sus trabajadores de la plantación de algodón que posee, comprende lo equivocado de su postura al tener que enrolarse en las tropas americanas durante la Segunda Guerra Mundial, donde tiene que compartir tristezas y penalidades con compañeros de todas las capas sociales. (FILMAFFINITY)

Capturas:

Imagen
Imagen
Imagen
Imagen
Imagen
Imagen

Datos técnicos:
Spoiler:
Código: Seleccionar todo
Name :
Between.Heaven.And.Hell.1956.1080p.BluRay.x264-CiNEFiLE (Dual&Span Subt).mkv
Format                                   : Matroska
Format version                           : Version 4 / Version 2
File size                                : 6.68 GiB
Duration                                 : 1h 29mn
Overall bit rate                         : 10.6 Mbps
Encoded date                             : UTC 2017-11-12 08:13:58
Writing application                      : mkvmerge v11.0.0 ('Alive') 64bit
Writing library                          : libebml v1.3.4 + libmatroska v1.4.5
DURATION                                 : 01:29:25.193000000
NUMBER_OF_FRAMES                         : 736
NUMBER_OF_BYTES                          : 28262
_STATISTICS_WRITING_APP                  : mkvmerge v11.0.0 ('Alive') 64bit
_STATISTICS_WRITING_DATE_UTC             : 2017-11-12 08:13:58
_STATISTICS_TAGS                         : BPS DURATION NUMBER_OF_FRAMES NUMBER_OF_BYTES

Video
ID                                       : 1
Format                                   : AVC
Format/Info                              : Advanced Video Codec
Format profile                           : High@L4
Format settings, CABAC                   : Yes
Format settings, ReFrames                : 5 frames
Codec ID                                 : V_MPEG4/ISO/AVC
Duration                                 : 1h 29mn
Bit rate                                 : 9 807 Kbps
Width                                    : 1 920 pixels
Height                                   : 816 pixels
Display aspect ratio                     : 2.35:1
Frame rate mode                          : Constant
Frame rate                               : 25.000 fps
Color space                              : YUV
Chroma subsampling                       : 4:2:0
Bit depth                                : 8 bits
Scan type                                : Progressive
Bits/(Pixel*Frame)                       : 0.250
Stream size                              : 6.02 GiB (90%)
Writing library                          : x264 core 140 r2377 1ca7bb9
Encoding settings                        : cabac=1 / ref=5 / deblock=1:0:0 / analyse=0x3:0x133 / me=umh / subme=8 / psy=1 / psy_rd=1.00:0.00 / mixed_ref=1 / me_range=16 / chroma_me=1 / trellis=1 / 8x8dct=1 / cqm=0 / deadzone=21,11 / fast_pskip=0 / chroma_qp_offset=-2 / threads=18 / lookahead_threads=3 / sliced_threads=0 / nr=0 / decimate=1 / interlaced=0 / bluray_compat=0 / constrained_intra=0 / bframes=3 / b_pyramid=2 / b_adapt=2 / b_bias=0 / direct=3 / weightb=1 / open_gop=0 / weightp=2 / keyint=250 / keyint_min=25 / scenecut=40 / intra_refresh=0 / rc_lookahead=50 / rc=2pass / mbtree=1 / bitrate=9807 / ratetol=1.0 / qcomp=0.60 / qpmin=0 / qpmax=69 / qpstep=4 / cplxblur=20.0 / qblur=0.5 / ip_ratio=1.40 / aq=1:1.00
Language                                 : English
Default                                  : Yes
Forced                                   : No
DURATION                                 : 01:29:50.960000000
NUMBER_OF_FRAMES                         : 134774
NUMBER_OF_BYTES                          : 6609036542
_STATISTICS_WRITING_APP                  : mkvmerge v11.0.0 ('Alive') 64bit
_STATISTICS_WRITING_DATE_UTC             : 2017-11-12 08:13:58
_STATISTICS_TAGS                         : BPS DURATION NUMBER_OF_FRAMES NUMBER_OF_BYTES

Audio #1
ID                                       : 2
Format                                   : AC-3
Format/Info                              : Audio Coding 3
Mode extension                           : CM (complete main)
Format settings, Endianness              : Big
Codec ID                                 : A_AC3
Duration                                 : 1h 29mn
Bit rate mode                            : Constant
Bit rate                                 : 640 Kbps
Channel(s)                               : 2 channels
Channel positions                        : Front: L R
Sampling rate                            : 48.0 KHz
Compression mode                         : Lossy
Stream size                              : 411 MiB (6%)
Title                                    : Ingles
Language                                 : English
Default                                  : No
Forced                                   : No

Audio #2
ID                                       : 3
Format                                   : AC-3
Format/Info                              : Audio Coding 3
Mode extension                           : CM (complete main)
Format settings, Endianness              : Big
Codec ID                                 : A_AC3
Duration                                 : 1h 29mn
Bit rate mode                            : Constant
Bit rate                                 : 192 Kbps
Channel(s)                               : 1 channel
Channel positions                        : Front: C
Sampling rate                            : 48.0 KHz
Compression mode                         : Lossy
Stream size                              : 123 MiB (2%)
Title                                    : Español
Language                                 : Spanish
Default                                  : Yes
Forced                                   : No

Text #1
ID                                       : 4
Format                                   : UTF-8
Codec ID                                 : S_TEXT/UTF8
Codec ID/Info                            : UTF-8 Plain Text
Title                                    : Castellano (forzados)
Language                                 : Spanish
Default                                  : Yes
Forced                                   : No

Text #2
ID                                       : 5
Format                                   : UTF-8
Codec ID                                 : S_TEXT/UTF8
Codec ID/Info                            : UTF-8 Plain Text
Title                                    : Castellano
Language                                 : Spanish
Default                                  : No
Forced                                   : No



El montaje lo he realizado a partir del upgrade Blurayniano del torrent (la scene que diría un conspicuo y añorado ripper) al cual he mezclado el audio spanish de un rip de Rodosky. Todas las copias emulianas en VE /Dual a las que he podido acceder tienen, del min 8 al 18, el audio en inglés. Para ello he incorporado unos subts forzados que encontré. Desconozco el porqué de esos 10 min sin banda de audio castellano. Creo que la vi en un lejano pase en A3 tv en la madrugada (probablemente sin scope) pero ni idea de esos 10 min...tal vez algún tijeretazo del abuelo. La peli me gustó bastante, anticipando en algunos conceptos la MailerWalshiana The naked and the dead...Enjoy :wink:

Imagen


Elinks:

eD2K link Between.Heaven.And.Hell.1956.1080p.BluRay.x264-CiNEFiLE (Dual&Span Subt).mkv [6.68 Gb] 


Subtítulos español y forzados dentro del contenedor del archivo.
felipemarlou
 
Mensajes: 1309
Temas: 163
Registrado: 09 Ago 2013, 23:02

Re: Between Heaven and Hell (Richard Fleischer, 1956) BDRip 1080p Dual SE

Notapor jail » 13 Nov 2017, 12:49

Gracias, felipe y rodosky.
jail
 
Mensajes: 4015
Temas: 6
Registrado: 18 Oct 2012, 14:34

Re: Between Heaven and Hell (Richard Fleischer, 1956) BDRip 1080p Dual SE

Notapor tuscarola » 14 Nov 2017, 09:04

Merci por la mejora felipe y rodosky. Además creo que se conserva el audio original de cines que es de los buenos.
Imagen
Imagen
Imagen
Imagen
In Memoriam:
Juan Manuel Soriano
Carmen Lombarte
Maribel Casals
Felipe Peña
Alfonso Santigosa
Rafael Navarro
Avatar de Usuario
tuscarola
 
Mensajes: 1388
Temas: 16
Registrado: 25 Dic 2012, 20:38
Ubicación: En el Tarragonés

España Re: Between Heaven and Hell (Richard Fleischer, 1956) BDRip 1080p Dual SE

Notapor sgtabbeyroad » 14 Nov 2017, 22:12

Gracias por la peli. :hi: :hi:
Avatar de Usuario
sgtabbeyroad
 
Mensajes: 54
Temas: 2
Registrado: 03 Oct 2012, 15:32
Ubicación: En FDL, en Leyenda.

Re: Between Heaven and Hell (Richard Fleischer, 1956) BDRip 1080p Dual SE

Notapor yojimbo » 18 Nov 2017, 15:30

Muchas gracias, felipemarlou y rodosky.
Avatar de Usuario
yojimbo
 
Mensajes: 6644
Temas: 17
Registrado: 18 Oct 2012, 13:25

Re: Between Heaven and Hell (Richard Fleischer, 1956) BDRip 1080p Dual SE

Notapor Gooffy » 18 Nov 2017, 17:36

muchas gracias....!!!! :aplauso:
Avatar de Usuario
Gooffy
 
Mensajes: 2244
Temas: 41
Registrado: 21 Oct 2012, 14:35
Ubicación: Atlántida, Uruguay


Volver a Largos Clásicos

¿Quién está conectado?

Usuarios navegando por este Foro: No hay usuarios registrados visitando el Foro y 3 invitados