Man with the Gun (Richard Wilson, 1955) BDRemux 1080p Dual SE

Con sus mismas armas

Moderador: mifune

Estados Unidos Man with the Gun (Richard Wilson, 1955) BDRemux 1080p Dual SE

Notapor roisiano » 14 Ene 2018, 10:04

Previamente en esta web




Con sus mismas armas (Man with the Gun) (Richard Wilson, 1955)

Imagen
Imagen
Filmaffinity | IMDb

Guion: N.B. Stone Jr., Richard Wilson
Música: Alex North
Fotografía: Lee Garmes (B&W)
Reparto: Robert Mitchum, Jan Sterling, Karen Sharpe, Henry Hull, Emile Meyer, John Lupton, Barbara Lawrence, Ted de Corsia, Leo Gordon, James Westerfield, Angie Dickinson
Productora: Formosa Productions
Género: Western

Sinopsis:
Un extranjero acude a una extraña ciudad en busca de su mujer, que lo había abandonado tiempo atrás. Para su sorpresa, encuentra a su esposa en un local donde las mujeres "prestan sus servicios" a hombres. Estando allí, conoce una ciudad y un sheriff temerosos de todo, hasta de su sombra. Por esa razón, uno de los importantes terratenientes del lugar, se aprovecha de ellos y les gobierna a su antojo. El sheriff le ofrecerá una importante suma si les libra de tan molesto individuo y devuelve la tranquilidad a su pueblo. (FILMAFFINITY)



Gracias a quienes compartieron el BD.
Spoiler:
Dadas las (extrañas) circunstancias en las que actualmente parecemos movernos en el mundo p2p (en especial, en lo relativo a los trackers privados), de aquí en adelante haré "agradecimientos genéricos" a quienes compartieron la fuente original y no enlazaré a dicha fuente original en mis posts.
Disculpen las molestias


Detalles de la edición


Imagen
Imagen
Imagen
Imagen
Imagen
Imagen
Imagen
Imagen


Código: Seleccionar todo
Format : Matroska
Format version : Version 4 / Version 2
File size : 17.1 GiB
Duration : 1 h 24 min
Overall bit rate mode : Variable
Overall bit rate : 29.0 Mb/s
Writing application : mkvmerge v19.0.0 ('Brave Captain') 64-bit
Writing library : libebml v1.3.5 + libmatroska v1.4.8

Video
ID : 1
Format : AVC
Format/Info : Advanced Video Codec
Format profile : High@L4.1
Format settings : CABAC / 4 Ref Frames
Format settings, CABAC : Yes
Format settings, RefFrames : 4 frames
Format settings, GOP : M=3, N=12
Codec ID : V_MPEG4/ISO/AVC
Duration : 1 h 24 min
Bit rate mode : Variable
Bit rate : 28.7 Mb/s
Maximum bit rate : 35.1 Mb/s
Width : 1 920 pixels
Height : 1 040 pixels
Original height : 1 080 pixels
Display aspect ratio : 16:9
Frame rate mode : Constant
Frame rate : 23.976 (24000/1001) FPS
Color space : YUV
Chroma subsampling : 4:2:0
Bit depth : 8 bits
Scan type : Progressive
Bits/(Pixel*Frame) : 0.600
Stream size : 16.9 GiB (99%)
Language : English
Default : No
Forced : No

Audio #1
ID : 2
Format : AAC
Format/Info : Advanced Audio Codec
Format profile : LC
Codec ID : A_AAC-2
Duration : 1 h 24 min
Bit rate : 121 kb/s
Channel(s) : 2 channels
Channel positions : Front: L R
Sampling rate : 48.0 kHz
Frame rate : 46.875 FPS (1024 SPF)
Compression mode : Lossy
Stream size : 72.9 MiB (0%)
Language : English
Default : Yes
Forced : No

Audio #2
ID : 3
Format : AAC
Format/Info : Advanced Audio Codec
Format profile : LC
Codec ID : A_AAC-2
Duration : 1 h 24 min
Bit rate : 116 kb/s
Channel(s) : 2 channels
Channel positions : Front: L R
Sampling rate : 48.0 kHz
Frame rate : 46.875 FPS (1024 SPF)
Compression mode : Lossy
Stream size : 70.2 MiB (0%)
Title : Doblaje
Language : Spanish
Default : No
Forced : No

Text #1
ID : 4
Format : UTF-8
Codec ID : S_TEXT/UTF8
Codec ID/Info : UTF-8 Plain Text
Duration : 1 h 23 min
Bit rate : 67 b/s
Count of elements : 1349
Stream size : 41.8 KiB (0%)
Language : Spanish
Default : Yes
Forced : No

Text #2
ID : 5
Format : UTF-8
Codec ID : S_TEXT/UTF8
Codec ID/Info : UTF-8 Plain Text
Duration : 1 h 21 min
Bit rate : 70 b/s
Count of elements : 1335
Stream size : 42.0 KiB (0%)
Language : English
Default : No
Forced : No

Menu
00:00:00.000 : en:00:00:00.000
00:09:02.178 : en:00:09:02.178
00:21:28.381 : en:00:21:28.381
00:38:44.250 : en:00:38:44.250
00:49:07.789 : en:00:49:07.789
00:56:57.925 : en:00:56:57.925
01:05:06.288 : en:01:05:06.288
01:14:44.700 : en:01:14:44.700





:arrow: BDRemux Dual (V.O. - doblaje en castellano) 1080p, con subtítulos en español e inglés en el contenedor MKV (17.09 GBs)

:arrow: Subtítulos por separado
, por si alguien los necesita para... (69 KBs)

Tanto los subtítulos en español como el doblaje se tomaron de un ripeo de Mercedes (muchas gracias) y se resincronizaron para este ripeo.


¿Por qué BDRemux y no BDRip?
Bueno...
a) El vídeo de la fuente es muy "granítico" y difícil de comprimir
b) El tamaño del vídeo original no es "indecente" (para mis "estándares" :mrgreen: )
c) Este mes WD seguro que me da prima doble :mrgreen:
d) Y para el que no lo quiera... hay opciones de menor tamaño...



:arrow: Cómo buscar archivos en emule. Necesario para buscar lo anterior...





----------------------------------------------------


Imagen Imagen

Última versión del codec x264 (inglés) | Web en español sobre el codec x264
Manual de ripeo con x264 en línea de comandos (español) | Parámetros de codificación (inglés)
Contenedor Matroska (español) | Matroska en wikipedia (español): software de PC compatible, etc.
MKVToolnix, herramientas de edición para matroska (inglés) | Añadir cadenas de audio o subtítulos con MKVToolnix (español)
MKVExtractGui | Manual de extracción de cadenas de audio/vídeo/subtítulos en MKV (español)
Cómo crear BDRemuxs MKV/x264 1080p o 1080p (español) | Guía avanzada para crear DVDRips MKV/x264 paso a paso (inglés)
A partir de ahora, no contestaré a cuestiones que se me planteen en los foros. Sólo contestaré mensajes privados.
----------------
From now on, I will not answer to messages in the forums. I will only answer private messages.
Avatar de Usuario
roisiano
 
Mensajes: 386
Temas: 148
Registrado: 16 Oct 2012, 14:36
Ubicación: Al final del río.

Re: Man with the Gun (Richard Wilson, 1955) BDRemux 1080p Dual SE

Notapor eulsus » 14 Ene 2018, 10:34

Muchas gracias, roisiano, por el trabajo de sincronizaciones de audio y subtítulos y por tus convincentes explicaciones para compartir directamente la fuente original. :hi:
"Una nación no se pierde porque unos la ataquen, sino porque quienes la aman no la defienden."
Blas de Lezo y Olavarrieta
Almirante español (1689-1741)
Avatar de Usuario
eulsus
 
Mensajes: 603
Temas: 23
Registrado: 07 Abr 2015, 23:14
Ubicación: La Palma

Re: Man with the Gun (Richard Wilson, 1955) BDRemux 1080p Dual SE

Notapor Arthur James Hamp » 14 Ene 2018, 10:37

Buen trabajo roisiano, muchas gracias. :genial: :aplauso: :aplauso:
"Cuando tu cabeza dice una cosa y toda tu vida dice la otra, la cabeza siempre pierde" (Cayo Largo)
Avatar de Usuario
Arthur James Hamp
 
Mensajes: 905
Temas: 103
Registrado: 06 May 2016, 09:47

Re: Man with the Gun (Richard Wilson, 1955) BDRemux 1080p Dual SE

Notapor jail » 14 Ene 2018, 20:50

M'explique la opción mencionada en d), por favor. Gracias. :)
jail
 
Mensajes: 4163
Temas: 6
Registrado: 18 Oct 2012, 13:34

Re: Man with the Gun (Richard Wilson, 1955) BDRemux 1080p Dual SE

Notapor mifune » 15 Ene 2018, 17:44

A pesar de que por la sinopsis pareciese un western típico y prototípico, el resultado final se aleja de los cánones del género. Muy recomendable.

Muchas gracias a los comerciales de WD por facilitarnos la película.
Cine, cine, cine. Más cine, por favor...
Avatar de Usuario
mifune
 
Mensajes: 5756
Temas: 786
Registrado: 02 Oct 2012, 18:48
Ubicación: Welcome to the Jungle

Re: Man with the Gun (Richard Wilson, 1955) BDRemux 1080p Dual SE

Notapor tonapar1 » 16 Ene 2018, 18:11

Muchas gracias por el ripeo a roisiano. Un saludo.
Avatar de Usuario
tonapar1
 
Mensajes: 2597
Registrado: 16 Oct 2012, 18:19

Re: Man with the Gun (Richard Wilson, 1955) BDRemux 1080p Dual SE

Notapor jail » 16 Ene 2018, 20:07

¿Qué nos deparará el futuro? ¿Un nueva edad de piedra? ¿Pedrisco como melones? ..... Bueno, p'al jardín.
jail
 
Mensajes: 4163
Temas: 6
Registrado: 18 Oct 2012, 13:34


Volver a Largos Clásicos

¿Quién está conectado?

Usuarios navegando por este Foro: No hay usuarios registrados visitando el Foro y 1 invitado