The Dark Mirror (Robert Siodmak, 1946) BDRip 720p Dual SE

A través del espejo

Moderador: mifune

Estados Unidos The Dark Mirror (Robert Siodmak, 1946) BDRip 720p Dual SE

Notapor DMMD » 20 Ene 2013, 16:21

The Dark Mirror

Robert Siodmak, 1946



Imagen


Imagen


A través del espejo




TÍTULO ORIGINAL [b]The Dark Mirror

AÑO 1946
DURACIÓN 85 min.
PAÍS Imagen
DIRECTOR Robert Siodmak
GUIÓN Nunnally Johnson (Historia: Vladimir Pozner)
MÚSICA Dimitri Tiomkin
FOTOGRAFÍA Milton Krasner (B&W)
REPARTO Olivia de Havilland, Lew Ayres, Thomas Mitchell, Richard Long, Charles Evans, Gary Owens
PRODUCTORA International Picture. Distribuida por Universal Pictures
PREMIOS 1946: Nominada al Oscar: Mejor historia
GÉNERO Intriga. Cine negro
SINOPSIS
Un médico aparece asesinado. La principal sospechosa es una mujer que fue vista abandonando el escenario del crimen, pero cuando la policía empieza a investigar hará un sorprendente descubrimiento. (FILMAFFINITY)



CRÍTICAS

"Intenso thriller (...) maravillosa Olivia de Havilland (...) El suspense está servido" (Fernando Morales: Diario El País)






Código: Seleccionar todo
General
Unique ID                                : 199882192092524533268639998376645978754 (0x965FE8EFDDE06353A8E8160AA49F6A82)
Complete name                            : D:\Incoming\1946-The.Dark.Mirror.BRx264.720p.Ac3[DMMD].mkv
Format                                   : Matroska
Format version                           : Version 2
File size                                : 4.49 GiB
Duration                                 : 1 h 25 min
Overall bit rate                         : 7 513 kb/s
Movie name                               : 1946-The Dark Mirror    BDRip720p.x264   by  DMMD(HDCL)
Encoded date                             : UTC 2013-01-20 11:08:36
Writing application                      : mkvmerge v5.8.0 ('No Sleep / Pillow') built on Sep  2 2012 15:37:04
Writing library                          : libebml v1.2.3 + libmatroska v1.3.0
Attachments                              : med_A_traves_del_espejo__1946__PG.jpg / med_g3ekqp+h.jpg / Dark Mirror.jpg / DarkMirror_WB1.png / 022608-1755-atravsdeles11.jpg / the dark mirror (1).jpg / The Dark Mirror.jpg / DarkMirrorLobby2.jpg

Video
ID                                       : 1
Format                                   : AVC
Format/Info                              : Advanced Video Codec
Format profile                           : High@L4.1
Format settings                          : CABAC / 12 Ref Frames
Format settings, CABAC                   : Yes
Format settings, RefFrames               : 12 frames
Codec ID                                 : V_MPEG4/ISO/AVC
Duration                                 : 1 h 25 min
Bit rate                                 : 6 999 kb/s
Width                                    : 960 pixels
Height                                   : 720 pixels
Display aspect ratio                     : 4:3
Frame rate mode                          : Constant
Frame rate                               : 23.976 (24000/1001) FPS
Color space                              : YUV
Chroma subsampling                       : 4:2:0
Bit depth                                : 8 bits
Scan type                                : Progressive
Bits/(Pixel*Frame)                       : 0.422
Stream size                              : 4.10 GiB (91%)
Writing library                          : x264 core 129 r2230 1cffe9f
Encoding settings                        : cabac=1 / ref=12 / deblock=1:-2:-2 / analyse=0x3:0x133 / me=umh / subme=10 / psy=1 / psy_rd=1.00:0.25 / mixed_ref=1 / me_range=24 / chroma_me=1 / trellis=2 / 8x8dct=1 / cqm=0 / deadzone=6,6 / fast_pskip=1 / chroma_qp_offset=-4 / threads=6 / lookahead_threads=1 / sliced_threads=0 / nr=0 / decimate=0 / interlaced=0 / bluray_compat=0 / constrained_intra=0 / bframes=8 / b_pyramid=2 / b_adapt=2 / b_bias=0 / direct=3 / weightb=1 / open_gop=0 / weightp=2 / keyint=250 / keyint_min=23 / scenecut=40 / intra_refresh=0 / rc_lookahead=60 / rc=2pass / mbtree=1 / bitrate=6999 / ratetol=1.0 / qcomp=0.80 / qpmin=0 / qpmax=69 / qpstep=4 / cplxblur=20.0 / qblur=0.5 / ip_ratio=1.10 / aq=1:0.50
Language                                 : English
Default                                  : Yes
Forced                                   : No

Audio #1
ID                                       : 2
Format                                   : AC-3
Format/Info                              : Audio Coding 3
Codec ID                                 : A_AC3
Duration                                 : 1 h 25 min
Bit rate mode                            : Constant
Bit rate                                 : 192 kb/s
Channel(s)                               : 2 channels
Channel positions                        : Front: L R
Sampling rate                            : 48.0 kHz
Frame rate                               : 31.250 FPS (1536 SPF)
Bit depth                                : 16 bits
Compression mode                         : Lossy
Stream size                              : 118 MiB (3%)
Title                                    : Dvd
Language                                 : Spanish
Service kind                             : Complete Main
Default                                  : No
Forced                                   : No

Audio #2
ID                                       : 3
Format                                   : AC-3
Format/Info                              : Audio Coding 3
Codec ID                                 : A_AC3
Duration                                 : 1 h 25 min
Bit rate mode                            : Constant
Bit rate                                 : 320 kb/s
Channel(s)                               : 1 channel
Channel positions                        : Front: C
Sampling rate                            : 48.0 kHz
Frame rate                               : 31.250 FPS (1536 SPF)
Bit depth                                : 16 bits
Compression mode                         : Lossy
Stream size                              : 196 MiB (4%)
Title                                    : Blu ray
Language                                 : English
Service kind                             : Complete Main
Default                                  : No
Forced                                   : No

Text #1
ID                                       : 4
Format                                   : UTF-8
Codec ID                                 : S_TEXT/UTF8
Codec ID/Info                            : UTF-8 Plain Text
Title                                    : Dvd
Language                                 : Spanish
Default                                  : No
Forced                                   : No

Text #2
ID                                       : 5
Format                                   : UTF-8
Codec ID                                 : S_TEXT/UTF8
Codec ID/Info                            : UTF-8 Plain Text
Title                                    : Dvd
Language                                 : English
Default                                  : No
Forced                                   : No

Menu
00:00:00.000                             : en:00:00:00.000
00:11:00.409                             : en:00:11:00.409
00:19:31.670                             : en:00:19:31.670
00:29:46.284                             : en:00:29:46.284
00:41:32.656                             : en:00:41:32.656
00:54:21.174                             : en:00:54:21.174
01:01:27.350                             : en:01:01:27.350
01:09:30.082                             : en:01:09:30.082




Fuente vídeo: Bluray (Olive Films )




COMPARATIVA


REVIEW


Imagen



Vídeo: [i]

-Encode a partir del Blu ray Olive Films

-Contraste fuerte con negros sólidos y profundos.

-Imagen detallada y clara.



Audios:

Procedentes del Bluray en la VO original.

Para el castellano extraído del dvd


Subtitulos

Extraídos del dvd



CAPTURAS


Imagen
Imagen
Imagen
Imagen
Imagen
Imagen




Enlaces de descarga

Imagen

eD2K link 1946-The.Dark.Mirror.BRx264.720p.Ac3[DMMD].mkv [4.49 Gb] 
Última edición por DMMD el 08 Nov 2017, 18:31, editado 1 vez en total
Avatar de Usuario
DMMD
 
Mensajes: 498
Temas: 237
Registrado: 16 Oct 2012, 14:35

Re: The Dark Mirror (Robert Siodmak, 1946) BDRip 720p Dual SE

Notapor lluis600 » 20 Ene 2013, 20:49

Gracias por la aportación, DMMD :genial:
Avatar de Usuario
lluis600
 
Mensajes: 942
Registrado: 16 Oct 2012, 18:39

Re: The Dark Mirror (Robert Siodmak, 1946) BDRip 720p Dual SE

Notapor heinlein » 20 Ene 2013, 21:15

Renovando copia, gracias DMMD.
Avatar de Usuario
heinlein
 
Mensajes: 222
Temas: 1
Registrado: 16 Oct 2012, 19:33

Re: The Dark Mirror (Robert Siodmak, 1946) BDRip 720p Dual SE

Notapor ciberyago » 21 Ene 2013, 06:27

Muchas gracias DMMD!!!
ciberyago
 
Mensajes: 1802
Temas: 3
Registrado: 20 Oct 2012, 06:26

Re: The Dark Mirror (Robert Siodmak, 1946) BDRip 720p Dual SE

Notapor bonneville » 21 Ene 2013, 22:33

renovando............muchas gracias.
Avatar de Usuario
bonneville
 
Mensajes: 125
Temas: 3
Registrado: 05 Nov 2012, 17:47

Re: The Dark Mirror (Robert Siodmak, 1946) BDRip 720p Dual SE

Notapor DMMD » 08 Nov 2017, 18:32

En lanzamiento de nuevo para rezagados. :roll:
Avatar de Usuario
DMMD
 
Mensajes: 498
Temas: 237
Registrado: 16 Oct 2012, 14:35


Volver a Largos Clásicos

¿Quién está conectado?

Usuarios navegando por este Foro: No hay usuarios registrados visitando el Foro y 1 invitado