Mogambo (John Ford, 1953) Ver índice

Mogambo.

Moderador: mifune

Estados Unidos Mogambo (John Ford, 1953) WEB-DL 720p Dual SE

Notapor DMMD » 05 Nov 2016, 12:36

Mogambo

John Ford, 1953





Imagen



Imagen





Mogambo

Título original
Mogambo

Año
1953

Duración
115 min.

País Imagen
Director
John Ford

Guión
John Lee Mahin (Obra: Wilson Collison)

Música
Canción: Robert Burns

Fotografía
Bruce Surtees, Frederick A. Young

Reparto
Clark Gable, Ava Gardner, Grace Kelly, Donald Sinden, Eric Pohlmann, Denis O'Dea, Philip Stainton, Laurence Naismith

Productora
Metro-Goldwyn-Mayer

Género
Aventuras. Drama | África. Caza. Remake

Sinopsis
Durante un safari en África, un cazador profesional (Gable) se encuentra dividido entre una recién casada, rubia y de apariencia gélida (Kelly), y una volcánica morena de turbio pasado (Gardner). Victor Marswell se dedica a la caza de animales salvajes para venderlos a los zoológicos de todo el mundo. Los Nordley, una pareja de recién casados, llegan al campamento buscando la ayuda de Marswell para filmar un documental sobre los gorilas. (FILMAFFINITY)

Premios
1953: Oscar: Nominada a Mejor actriz (Ava Gardner) y actriz sec. (Grace Kelly)
1953: Globos de Oro: Mejor actriz de reparto (Grace Kelly)
1953: Premios BAFTA: Nominada a mejor película
1953: Círculo de Críticos de Nueva York: Nominada a Mejor actri (Ava Gardner)
1953: National Board of Review: Top 10 Mejores películas


Imagen


Código: Seleccionar todo
General
Unique ID                                : 223077502876657183451350067552378407103 (0xA7D32A0DA8D9150E906E00172573C8BF)
Complete name                            : C:\Program Files (x86)\eMule\Incoming\1953-Mogambo.WEB-DL.720p.AC3[DMMD].mkv
Format                                   : Matroska
Format version                           : Version 4 / Version 2
File size                                : 5.59 GiB
Duration                                 : 1 h 56 min
Overall bit rate                         : 6 890 kb/s
Movie name                               : 1953-Mogambo.WEB-DL.720p.AC3[DMMD]
Encoded date                             : UTC 2016-11-04 15:21:04
Writing application                      : mkvmerge v9.0.1 ('Obstacles') 64bit
Writing library                          : libebml v1.3.3 + libmatroska v1.4.4
Attachments                              : 2.jpg / 1.jpg

Video
ID                                       : 1
Format                                   : AVC
Format/Info                              : Advanced Video Codec
Format profile                           : High@L4.1
Format settings, CABAC                   : Yes
Format settings, ReFrames                : 12 frames
Codec ID                                 : V_MPEG4/ISO/AVC
Duration                                 : 1 h 56 min
Bit rate                                 : 6 472 kb/s
Width                                    : 960 pixels
Height                                   : 720 pixels
Display aspect ratio                     : 4:3
Frame rate mode                          : Constant
Frame rate                               : 23.976 FPS
Color space                              : YUV
Chroma subsampling                       : 4:2:0
Bit depth                                : 8 bits
Scan type                                : Progressive
Bits/(Pixel*Frame)                       : 0.391
Stream size                              : 5.25 GiB (94%)
Writing library                          : x264 core 148 r2638kMod 7599210
Encoding settings                        : cabac=1 / ref=12 / deblock=1:-3:-3 / analyse=0x3:0x133 / me=umh / subme=11 / psy=1 / fade_compensate=0.00 / psy_rd=1.10:0.00 / mixed_ref=1 / me_range=32 / chroma_me=1 / trellis=2 / 8x8dct=1 / cqm=0 / deadzone=21,11 / fast_pskip=0 / chroma_qp_offset=-2 / threads=6 / lookahead_threads=1 / sliced_threads=0 / nr=0 / decimate=0 / interlaced=0 / bluray_compat=0 / constrained_intra=0 / fgo=0 / bframes=11 / b_pyramid=2 / b_adapt=2 / b_bias=0 / direct=3 / weightb=1 / open_gop=0 / weightp=2 / keyint=250 / keyint_min=23 / scenecut=40 / intra_refresh=0 / rc=crf / mbtree=0 / crf=18.5000 / qcomp=0.63 / qpmin=0 / qpmax=69 / qpstep=4 / ip_ratio=1.40 / pb_ratio=1.30 / aq=1:1.00
Language                                 : English
Default                                  : Yes
Forced                                   : No

Audio #1
ID                                       : 2
Format                                   : E-AC-3
Format/Info                              : Enhanced Audio Coding 3
Format settings, Endianness              : Big
Codec ID                                 : A_EAC3
Duration                                 : 1 h 56 min
Bit rate mode                            : Constant
Bit rate                                 : 224 kb/s
Channel(s)                               : 2 channels
Channel positions                        : Front: L R
Sampling rate                            : 48.0 kHz
Frame rate                               : 187.500 FPS (256 spf)
Compression mode                         : Lossy
Stream size                              : 186 MiB (3%)
Language                                 : English
Default                                  : No
Forced                                   : No

Audio #2
ID                                       : 3
Format                                   : AC-3
Format/Info                              : Audio Coding 3
Mode extension                           : CM (complete main)
Format settings, Endianness              : Big
Codec ID                                 : A_AC3
Duration                                 : 1 h 56 min
Bit rate mode                            : Constant
Bit rate                                 : 192 kb/s
Channel(s)                               : 2 channels
Channel positions                        : Front: L R
Sampling rate                            : 48.0 kHz
Frame rate                               : 31.250 FPS (1536 spf)
Bit depth                                : 16 bits
Compression mode                         : Lossy
Delay relative to video                  : 50 ms
Stream size                              : 159 MiB (3%)
Language                                 : Spanish
Default                                  : No
Forced                                   : No

Text #1
ID                                       : 4
Format                                   : UTF-8
Codec ID                                 : S_TEXT/UTF8
Codec ID/Info                            : UTF-8 Plain Text
Duration                                 : 1 h 54 min
Bit rate                                 : 54 b/s
Count of elements                        : 1160
Stream size                              : 45.1 KiB (0%)
Language                                 : Spanish
Default                                  : No
Forced                                   : No

Text #2
ID                                       : 5
Format                                   : UTF-8
Codec ID                                 : S_TEXT/UTF8
Codec ID/Info                            : UTF-8 Plain Text
Duration                                 : 12 s 839 ms
Bit rate                                 : 153 b/s
Count of elements                        : 5
Stream size                              : 246 Bytes (0%)
Title                                    : Forzados
Language                                 : Spanish
Default                                  : No
Forced                                   : No

Text #3
ID                                       : 6
Format                                   : UTF-8
Codec ID                                 : S_TEXT/UTF8
Codec ID/Info                            : UTF-8 Plain Text
Duration                                 : 1 h 53 min
Bit rate                                 : 57 b/s
Count of elements                        : 1155
Stream size                              : 47.4 KiB (0%)
Language                                 : English
Default                                  : No
Forced                                   : No

Menu
00:00:00.000                             : en:Credits
00:01:33.000                             : en:Black Leopard
00:04:59.000                             : en:Honey Bear
00:09:11.000                             : en:Everything Snarls
00:12:20.000                             : en:Animal Attraction
00:19:19.000                             : en:Boat Day
00:23:55.000                             : en:Bronx Zoo Next
00:26:09.000                             : en:Turning Into A Hospital
00:31:01.000                             : en:Fighting Over A female
00:34:06.000                             : en:Return Engagement
00:38:22.000                             : en:Getting One's Bearings
00:41:52.000                             : en:Predator's Prey
00:45:17.000                             : en:In For A Storm
00:49:07.000                             : en:Voracious Creatures
00:52:05.000                             : en:Change Of Mind
00:56:16.000                             : en:Play By Play
01:00:13.000                             : en:Perfectly Obvious
01:05:01.000                             : en:Ceremony Of Courage
01:09:04.000                             : en:Confessions
01:12:24.000                             : en:River Conversation
01:15:59.000                             : en:District Office Menace
01:20:56.000                             : en:Her Scars
01:23:23.000                             : en:Unfaithful
01:26:48.000                             : en:Gorilla Study
01:30:29.000                             : en:Calling A Bluff
01:34:07.000                             : en:Restless Night
01:37:13.000                             : en:Really In Love
01:40:19.000                             : en:Man To Man
01:45:38.000                             : en:A Wife As Pretty
01:48:07.000                             : en:Vic's Choice
01:53:03.000                             : en:Quick-Change Artists
01:55:46.000                             : en:Cast List





Encode 720p Vs WEB-DL (antiguo) Vs Dvd Pal

Imagen
Imagen
Imagen


Audio español y sub extraídos del DVD-Rip compartido por Mercedes (Mil gracias :wink: )

Imagen


CAPTURAS


Imagen
Imagen
Imagen
Imagen
Imagen
Imagen
Imagen



Enlaces de descarga

Imagen


eD2K link 1953-Mogambo.WEB-DL.720p.AC3[DMMD].mkv [5.59 Gb] 
Avatar de Usuario
DMMD
 
Mensajes: 483
Temas: 232
Registrado: 16 Oct 2012, 15:35

Re: Mogambo (John Ford, 1953) WEB-DL 720p Dual SE

Notapor toti » 05 Nov 2016, 16:01

Muchas gracias.
toti
 
Mensajes: 143
Registrado: 02 Abr 2013, 16:51

Re: Mogambo (John Ford, 1953) WEB-DL 720p Dual SE

Notapor janca » 05 Nov 2016, 16:49

Muchas gracias DMMD. Una lástima que no podamos ''disfrutar'' el ''famoso'' doblaje del 1954
Avatar de Usuario
janca
 
Mensajes: 2510
Registrado: 16 Oct 2012, 16:39

Re: Mogambo (John Ford, 1953) Ver índice

Notapor DCINE » 08 Oct 2017, 22:51

Si se puede

QUIQUE en foroseldoblaje escribió:Buenas noches.

Refloto este tema con una nueva vieja noticia, a la que hacía referencia Moses en su primer mensaje. Así lo contó Fotogramas en su número de diciembre de 1985:

PELÍCULA MÍTICA, DOBLAJE NUEVO

Hace un par de años, los amigos de lo ajeno comercializaban una edición pirata de "Mogambo", plagada de pequeños cortes e innumerables rayas. Su particularidad más curiosa era el doblaje. Porque la copia cinematográfica que utilizaron tenía aquella célebre –tristemente célebre– banda sonora española, en la que la censura franquista había introducido cambios sustanciales en el guión, convirtiendo a unos esposos en hermanos. Y a cambio de evitar el adulterio, se planteaba un incesto. Una de las anécdotas más conocidas y comentadas de los estragos censores. [...]

De aquí deducimos que hacia 1983 ese codiciado doblaje original andaba por ahí. Lo sorprendente es que en todos estos años ningún agraciado se haya manifestado al respecto...

Un saludo.


A ver si hay alguien que tenga esa edición pirata
Avatar de Usuario
DCINE
 
Mensajes: 995
Temas: 106
Registrado: 30 Jul 2016, 20:09

Re: Mogambo (John Ford, 1953) Ver índice

Notapor enniodeconcini » 12 Oct 2017, 23:38

Por este foro hay un señor (al menos) que tiene tal doblaje primitivo, pero no creo esté por la labor. Un saludo, y muchísimas gracias por compartirla.
enniodeconcini
 
Mensajes: 232
Temas: 39
Registrado: 03 Nov 2012, 23:28

Re: Mogambo (John Ford, 1953) Ver índice

Notapor santiagoo » 13 Oct 2017, 01:43

enniodeconcini escribió:Por este foro hay un señor (al menos) que tiene tal doblaje primitivo, pero no creo esté por la labor. Un saludo, y muchísimas gracias por compartirla.

Y probablemente alguno más (señores y doblajes).

Si los "hacedores" de subtítulos (que exigen una importante inversión de tiempo) tuviesen similar mentalidad, lo llevábamos claro.
Si repartimos al menos lo que pesa un archivo antes de quitarlo del incoming, nunca habría problemas de fuentes, habría relevos naturales. Las líneas son asimétricas, pero nuestra rutina de subida-bajada no tiene por qué serlo. .
Avatar de Usuario
santiagoo
 
Mensajes: 1917
Temas: 362
Registrado: 03 Oct 2012, 21:38
Ubicación: Zaragoza, Spain

Re: Mogambo (John Ford, 1953) Ver índice

Notapor eulsus » 13 Oct 2017, 10:33

santiagoo escribió:
enniodeconcini escribió:Por este foro hay un señor (al menos) que tiene tal doblaje primitivo, pero no creo esté por la labor. Un saludo, y muchísimas gracias por compartirla.

Y probablemente alguno más (señores y doblajes).


Cada vez que leo algo de esto, me embarga siempre el mismo sentimiento de dualidad entre la tristeza/impotencia y la rabia/cólera.
Debe influir mucho en ello, que lo haya hecho precisamente en este sitio, en donde impera el altruismo más absoluto.
"Una nación no se pierde porque unos la ataquen, sino porque quienes la aman no la defienden."
Blas de Lezo y Olavarrieta
Almirante español (1689-1741)
Avatar de Usuario
eulsus
 
Mensajes: 431
Temas: 11
Registrado: 08 Abr 2015, 01:14
Ubicación: La Palma

Re: Mogambo (John Ford, 1953) Ver índice

Notapor DMMD » 13 Oct 2017, 14:08

A mi particularmente como ya he comentado en mas de una ocasión me da bastante igual el tema de los doblajes, no soy consumidor de ellos, pero entiendo y respeto a todos aquellos que si lo hacen.


Tampoco entiendo la postura de no compartirlos, imagino que los actores que en su día doblaron las pelis, le gustaría llegar a cuanta mas personas mejor, como todo arte.


Me encantaría que alguien me explique o al menos me razone este tipo de posturas.
Avatar de Usuario
DMMD
 
Mensajes: 483
Temas: 232
Registrado: 16 Oct 2012, 15:35

Re: Mogambo (John Ford, 1953) Ver índice

Notapor enniodeconcini » 13 Oct 2017, 15:10

Sí. Y luego después es de los primerísimos que pinchan cuando alguien coloca algún doblaje perdido... Nada nuevo. Yo, tenga o no tenga algún doblaje, duermo muy bien por las noches. Pero sí, da coraje/tristeza/impotencia.

En fin... Lo dicho. Gracias a todos los implicados por traernos estos ripeos tan maravillosos. Y a ver si un día cambia la mentalidad de las personas, leñe.
enniodeconcini
 
Mensajes: 232
Temas: 39
Registrado: 03 Nov 2012, 23:28

Re: Mogambo (John Ford, 1953) Ver índice

Notapor DCINE » 13 Oct 2017, 16:19

DMMD escribió:Tampoco entiendo la postura de no compartirlos, imagino que los actores que en su día doblaron las pelis, le gustaría llegar a cuanta mas personas mejor, como todo arte.


En ese foro tienen muchos doblajes inéditos en la red, lo que no entiendo es porque hay tantos hilos donde se habla de recuperar si lo que hacen es abrir fichas (sin contar las intuitivas) sabiendo que no están al alcance de todos. No se lo que quieren conseguir con eso.
Avatar de Usuario
DCINE
 
Mensajes: 995
Temas: 106
Registrado: 30 Jul 2016, 20:09

AnteriorSiguiente

Volver a Largos Clásicos

¿Quién está conectado?

Usuarios navegando por este Foro: boettcher, carnicerito y 1 invitado