The Public Enemy (William A. Wellman, 1931) BDRip 720p Dual SE

El enemigo público

Moderador: mifune

Estados Unidos The Public Enemy (William A. Wellman, 1931) BDRip 720p Dual SE

Notapor DMMD » 05 Jun 2013, 17:00

The Public Enemy

William A. Wellman, 1931


Imagen





Imagen



El enemigo público


Título original The Public Enemy
Año 1931
Duración 84 min.
País Imagen
Director William A. Wellman
Guión Harvey Thew, Kubec Glasman, John Bright
Música David Mendoza
Fotografía Dev Jennings (B&W)
Reparto James Cagney, Jean Harlow, Edward Woods, Joan Blondell, Donald Cook, Mae Clarke, Beryl Mercer
Productora Warner Bros. Pictures
Género Cine negro | Policíaco. Crimen
Sinopsis
Relato del auge y caída de Tom (James Cagney), un criminal de poca monta que asciende rápidamente gracias a la Ley Seca. Con la colaboración de su mejor amigo y cómplice (Edward Woods) Tom, seducido por el poder y el dinero, se involucra en turbios negocios. (FILMAFFINITY)

Premios
1930: Nominada al Oscar: Mejor historia



Código: Seleccionar todo
General
Unique ID                                : 224421828413897131179676395904925858460 (0xA8D6126B6C4DE675A1090C59486E7A9C)
Complete name                            : C:\Program Files (x86)\eMule\Incoming\1931-The.Public.Enemy.BRx264.720p.AC3[DMMD].mkv
Format                                   : Matroska
Format version                           : Version 4 / Version 2
File size                                : 5.36 GiB
Duration                                 : 1 h 24 min
Overall bit rate                         : 9 127 kb/s
Movie name                               : 1931-The.Public.Enemy..BRx264.720p.AC3.[DMMD]
Encoded date                             : UTC 2013-06-05 15:10:02
Writing application                      : mkvmerge v6.2.0 ('Promised Land') built on Apr 28 2013 12:22:01
Writing library                          : libebml v1.3.0 + libmatroska v1.4.0
Attachments                              : 3.jpg / 4.jpg / 2.jpg / 1.jpg

Video
ID                                       : 1
Format                                   : AVC
Format/Info                              : Advanced Video Codec
Format profile                           : High@L4.1
Format settings, CABAC                   : Yes
Format settings, ReFrames                : 11 frames
Codec ID                                 : V_MPEG4/ISO/AVC
Duration                                 : 1 h 24 min
Bit rate                                 : 8 241 kb/s
Width                                    : 984 pixels
Height                                   : 720 pixels
Display aspect ratio                     : 4:3
Frame rate mode                          : Constant
Frame rate                               : 23.976 (24000/1001) FPS
Color space                              : YUV
Chroma subsampling                       : 4:2:0
Bit depth                                : 8 bits
Scan type                                : Progressive
Bits/(Pixel*Frame)                       : 0.485
Stream size                              : 4.84 GiB (90%)
Writing library                          : x264 core 129 r2230 1cffe9f
Encoding settings                        : cabac=1 / ref=11 / deblock=1:-2:-2 / analyse=0x3:0x133 / me=umh / subme=10 / psy=1 / psy_rd=1.00:0.25 / mixed_ref=1 / me_range=24 / chroma_me=1 / trellis=2 / 8x8dct=1 / cqm=0 / deadzone=6,6 / fast_pskip=1 / chroma_qp_offset=-4 / threads=6 / lookahead_threads=1 / sliced_threads=0 / nr=0 / decimate=0 / interlaced=0 / bluray_compat=0 / constrained_intra=0 / bframes=8 / b_pyramid=2 / b_adapt=2 / b_bias=0 / direct=3 / weightb=1 / open_gop=0 / weightp=2 / keyint=250 / keyint_min=23 / scenecut=40 / intra_refresh=0 / rc_lookahead=60 / rc=crf / mbtree=1 / crf=19.7 / qcomp=0.80 / qpmin=0 / qpmax=69 / qpstep=4 / ip_ratio=1.10 / aq=1:0.50
Language                                 : English
Default                                  : Yes
Forced                                   : No

Audio #1
ID                                       : 2
Format                                   : AC-3
Format/Info                              : Audio Coding 3
Mode extension                           : CM (complete main)
Format settings, Endianness              : Big
Codec ID                                 : A_AC3
Duration                                 : 1 h 24 min
Bit rate mode                            : Constant
Bit rate                                 : 192 kb/s
Channel(s)                               : 2 channels
Channel positions                        : Front: L R
Sampling rate                            : 48.0 kHz
Frame rate                               : 31.250 FPS (1536 spf)
Bit depth                                : 16 bits
Compression mode                         : Lossy
Stream size                              : 115 MiB (2%)
Title                                    : Dvd
Language                                 : Spanish
Default                                  : No
Forced                                   : No

Audio #2
ID                                       : 3
Format                                   : AC-3
Format/Info                              : Audio Coding 3
Mode extension                           : CM (complete main)
Format settings, Endianness              : Big
Codec ID                                 : A_AC3
Duration                                 : 1 h 24 min
Bit rate mode                            : Constant
Bit rate                                 : 320 kb/s
Channel(s)                               : 1 channel
Channel positions                        : Front: C
Sampling rate                            : 48.0 kHz
Frame rate                               : 31.250 FPS (1536 spf)
Bit depth                                : 16 bits
Compression mode                         : Lossy
Stream size                              : 192 MiB (4%)
Title                                    : Blu ray
Language                                 : English
Default                                  : No
Forced                                   : No

Audio #3
ID                                       : 4
Format                                   : AC-3
Format/Info                              : Audio Coding 3
Mode extension                           : CM (complete main)
Format settings, Endianness              : Big
Codec ID                                 : A_AC3
Duration                                 : 1 h 24 min
Bit rate mode                            : Constant
Bit rate                                 : 192 kb/s
Channel(s)                               : 1 channel
Channel positions                        : Front: C
Sampling rate                            : 48.0 kHz
Frame rate                               : 31.250 FPS (1536 spf)
Bit depth                                : 16 bits
Compression mode                         : Lossy
Stream size                              : 115 MiB (2%)
Title                                    : Audiocomentario
Language                                 : English
Default                                  : No
Forced                                   : No

Text #1
ID                                       : 5
Format                                   : UTF-8
Codec ID                                 : S_TEXT/UTF8
Codec ID/Info                            : UTF-8 Plain Text
Title                                    : Forzados
Language                                 : Spanish
Default                                  : Yes
Forced                                   : Yes

Text #2
ID                                       : 6
Format                                   : UTF-8
Codec ID                                 : S_TEXT/UTF8
Codec ID/Info                            : UTF-8 Plain Text
Title                                    : Blu ray
Language                                 : Spanish
Default                                  : No
Forced                                   : No

Text #3
ID                                       : 7
Format                                   : UTF-8
Codec ID                                 : S_TEXT/UTF8
Codec ID/Info                            : UTF-8 Plain Text
Title                                    : Dvd
Language                                 : Spanish
Default                                  : No
Forced                                   : No

Text #4
ID                                       : 8
Format                                   : UTF-8
Codec ID                                 : S_TEXT/UTF8
Codec ID/Info                            : UTF-8 Plain Text
Title                                    : Blu ray
Language                                 : English
Default                                  : No
Forced                                   : No

Menu
00:00:00.000                             : en:00:00:00.000
00:01:57.450                             : en:00:01:57.450
00:05:07.724                             : en:00:05:07.724
00:09:55.428                             : en:00:09:55.428
00:13:06.368                             : en:00:13:06.368
00:17:03.397                             : en:00:17:03.397
00:20:09.958                             : en:00:20:09.958
00:23:59.229                             : en:00:23:59.229
00:29:04.576                             : en:00:29:04.576
00:33:18.121                             : en:00:33:18.121
00:38:36.814                             : en:00:38:36.814
00:44:03.849                             : en:00:44:03.849
00:46:35.417                             : en:00:46:35.417
00:49:41.978                             : en:00:49:41.978
00:53:20.989                             : en:00:53:20.989
00:56:40.772                             : en:00:56:40.772
00:58:51.527                             : en:00:58:51.527
01:03:04.113                             : en:01:03:04.113
01:08:39.198                             : en:01:08:39.198
01:12:39.354                             : en:01:12:39.354
01:16:07.145                             : en:01:16:07.145
01:19:26.136                             : en:01:19:26.136
01:21:35.724                             : en:01:21:35.724








REVIEW



- Encode a partir del Blu editado por Warner Bros.

- La imagen cuenta con grano de aspecto natural, negros profundos, contraste bien equilibrado que permite la delimitación correcta de los tonos de grises, el detalle es siempre impresionante para una película de esta época.

- Audio castellano extraído del Dvd y del blu para la V.O.

- Incluido el Audiocomentario que trae el blu.

- Subtítulos en español extraídos del blu , he incluido también los que trae la edición del Dvd.

- Tenéis unos forzados para las partes donde no existe doblaje.

- Subtítulos en inglés extraidos del blu.







CAPTURAS

Imagen
Imagen
Imagen
Imagen
Imagen
Imagen



Enlaces de descarga

Imagen


eD2K link 1931-The.Public.Enemy.BRx264.720p.AC3[DMMD].mkv [5.36 Gb] 
Última edición por DMMD el 04 Oct 2017, 19:49, editado 2 veces en total
Avatar de Usuario
DMMD
 
Mensajes: 502
Temas: 237
Registrado: 16 Oct 2012, 14:35

Re: The Public Enemy (William A. Wellman, 1931) BDRip 720p Dual SE

Notapor santiagoo » 05 Jun 2013, 17:20

Me lo llevo, excelente como siempre, DMMD. :aplauso: :aplauso:
Si repartimos al menos lo que pesa un archivo antes de quitarlo del incoming, nunca habría problemas de fuentes, habría relevos naturales. Las líneas son asimétricas, pero nuestra rutina de subida-bajada no tiene por qué serlo. .
Avatar de Usuario
santiagoo
 
Mensajes: 1923
Temas: 365
Registrado: 03 Oct 2012, 20:38
Ubicación: Zaragoza, Spain

Re: The Public Enemy (William A. Wellman, 1931) BDRip 720p Dual SE

Notapor janca » 06 Jun 2013, 06:01

Gracias DMMD
Avatar de Usuario
janca
 
Mensajes: 2512
Temas: 1
Registrado: 16 Oct 2012, 15:39

Re: The Public Enemy (William A. Wellman, 1931) BDRip 720p Dual SE

Notapor yojimbo » 08 Jun 2013, 17:48

Muchas gracias, DMMD.
Avatar de Usuario
yojimbo
 
Mensajes: 6649
Temas: 17
Registrado: 18 Oct 2012, 13:25

Re: The Public Enemy (William A. Wellman, 1931) BDRip 720p Dual SE

Notapor heinlein » 08 Jun 2013, 19:37

Muchas gracias DMMD.
Avatar de Usuario
heinlein
 
Mensajes: 222
Temas: 1
Registrado: 16 Oct 2012, 19:33

Re: The Public Enemy (William A. Wellman, 1931) BDRip 720p Dual SE

Notapor JGUTII » 10 Jun 2013, 23:22

Muchas gracias, DMMD. :hi:
Imagen
Avatar de Usuario
JGUTII
 
Mensajes: 1627
Temas: 3
Registrado: 19 Oct 2012, 04:57
Ubicación: Ciudad del Betis

Re: The Public Enemy (William A. Wellman, 1931) BDRip 720p Dual SE

Notapor DMMD » 11 Feb 2017, 15:42

Post principal arreglado y en el incoming de nuevo. :up:
Avatar de Usuario
DMMD
 
Mensajes: 502
Temas: 237
Registrado: 16 Oct 2012, 14:35

Re: The Public Enemy (William A. Wellman, 1931) BDRip 720p Dual SE

Notapor tonapar1 » 04 Oct 2017, 14:52

Mucvhas gracias por el ripeo a dmmd. Un saludo.
Avatar de Usuario
tonapar1
 
Mensajes: 2542
Registrado: 16 Oct 2012, 19:19


Volver a Largos Clásicos

¿Quién está conectado?

Usuarios navegando por este Foro: beacpp y 1 invitado