Ransom! (Alex Segal, 1956) DVDRip VO + Aud Esp

Rapto

Moderador: mifune

Estados Unidos Ransom! (Alex Segal, 1956) DVDRip VO + Aud Esp

Notapor roisiano » 03 Nov 2014, 08:16

Rapto (Ransom!) (Alex Segal, 1956)

Imagen
Filmaffinity | IMDb

Guión: Cyril Hume, Richard Maibaum
Música: Jeff Alexander
Fotografía: Arthur E. Arling
Reparto: Glenn Ford, Donna Reed, Leslie Nielsen, Juano Hernandez, Robert Keith, Richard Gaines, Mabel Albertson, Alexander Scourby, Bobby Clark, Ainslie Pryor, Lori March, Robert Burton, Juanita Moore, Mary Alan Hokanson, Robert Stevenson
Productora: Metro-Goldwyn-Mayer (MGM)
Género: Intriga | Drama | Secuestros | Desapariciones

Sinopsis:
El hijo de un rico industrial es secuestrado por unos desconocidos que exigen un rescate de medio millón de dólares. El padre, aconsejado por el comisario de policía y por un periodista, se niega a entregar la cantidad solicitada.
En 1996 se hizo un remake dirigido por Ron Howard y protagonizado por Mel Gibson: Rescate. (FILMAFFINITY)


Gracias a quienes compartieron el DVD.

Ripeo anamórfico
Código: Seleccionar todo
Resolution: 672 x 480
Frame aspect ratio: 7:5 = 1.4
Pixel aspect ratio: 199:168 = 1.184523
Display aspect ratio: 199:120 = 1.658333
con esta configuración:
Código: Seleccionar todo
"C:\x264.exe" --preset veryslow --tune film --crf 19.0 --no-chroma-me --level 4.1 --output "C:\mi_ripeo.mkv" "C:\mi_script.avs" --sar 8:9


Imagen
Imagen
Imagen
Imagen
Imagen
Imagen

Código: Seleccionar todo
Format : Matroska
Format version : Version 4 / Version 2
File size : 1.69 GiB
Duration : 1h 42mn
Overall bit rate : 2 364 Kbps
Encoded date : UTC 2014-11-02 20:45:42
Writing application : mkvmerge v7.3.0 ('Nouages') 64bit built on Oct 22 2014 18:53:34
Writing library : libebml v1.3.0 + libmatroska v1.4.1
DURATION : 01:42:03.168000000
NUMBER_OF_FRAMES : 191349
NUMBER_OF_BYTES : 146956032
_STATISTICS_WRITING_APP : mkvmerge v7.3.0 ('Nouages') 64bit built on Oct 22 2014 18:53:34


Video
ID : 1
Format : AVC
Format/Info : Advanced Video Codec
Format profile : High@L4.1
Format settings, CABAC : Yes
Format settings, ReFrames : 16 frames
Codec ID : V_MPEG4/ISO/AVC
Duration : 1h 42mn
Bit rate : 2 125 Kbps
Width : 672 pixels
Height : 480 pixels
Display aspect ratio : 1.658
Original display aspect ratio : 1.659
Frame rate mode : Constant
Frame rate : 23.976 fps
Color space : YUV
Chroma subsampling : 4:2:0
Bit depth : 8 bits
Scan type : Progressive
Bits/(Pixel*Frame) : 0.275
Stream size : 1.52 GiB (90%)
Writing library : x264 core 142 r2479 dd79a61
Encoding settings : cabac=1 / ref=16 / deblock=1:-1:-1 / analyse=0x3:0x133 / me=umh / subme=10 / psy=1 / psy_rd=1.00:0.15 / mixed_ref=1 / me_range=24 / chroma_me=0 / trellis=2 / 8x8dct=1 / cqm=0 / deadzone=21,11 / fast_pskip=1 / chroma_qp_offset=-3 / threads=6 / lookahead_threads=1 / sliced_threads=0 / nr=0 / decimate=1 / interlaced=0 / bluray_compat=0 / constrained_intra=0 / bframes=8 / b_pyramid=2 / b_adapt=2 / b_bias=0 / direct=3 / weightb=1 / open_gop=0 / weightp=2 / keyint=250 / keyint_min=23 / scenecut=40 / intra_refresh=0 / rc_lookahead=60 / rc=crf / mbtree=1 / crf=19.0 / qcomp=0.60 / qpmin=0 / qpmax=69 / qpstep=4 / ip_ratio=1.40 / aq=1:1.00
Language : English
Default : Yes
Forced : No
DURATION : 01:42:03.117000000
NUMBER_OF_FRAMES : 146808
NUMBER_OF_BYTES : 1661474494
_STATISTICS_WRITING_APP : mkvmerge v7.3.0 ('Nouages') 64bit built on Oct 22 2014 18:53:34


Audio
ID : 2
Format : AC-3
Format/Info : Audio Coding 3
Mode extension : CM (complete main)
Format settings, Endianness : Big
Codec ID : A_AC3
Duration : 1h 42mn
Bit rate mode : Constant
Bit rate : 192 Kbps
Channel(s) : 2 channels
Channel positions : Front: L R
Sampling rate : 48.0 KHz
Bit depth : 16 bits
Compression mode : Lossy
Stream size : 140 MiB (8%)
Language : English
Default : Yes
Forced : No   


:arrow: eD2K link Ransom!.1956.DVDRip.x264.AC3.mkv [1.69 Gb]  (DVDRip V.O.)


Sin subtítulos, que yo sepa, aunque hay un SATRip doblado ( eD2K link Rapto (Alex Segal, 1956) SATRip. Esp. by nordlingen.avi [831.21 Mb]  ) gracias a nordlingen...

mifune escribió:Bueno, la sincro no ha sido complicada, pero a última hora surgieron problemas nuevos para mi. Creo haberlos solucionado, pero si detectáis algo raro decídmelo. Dejo dos enlaces, uno para la gente que vea y use MKV https://mega.co.nz/#!2FtHwRCa!7z9jHJoAu ... AHELCHUeO4

Este otro para la gente que convierta a avi los MKV. https://mega.co.nz/#!fJsjCDSC!8f9QF2t7o ... HDVh6T4pUA son sincros diferentes, hay una diferencia de 0.486, debido a esos problemas que comentaba antes.



----------------------------------------------------

Imagen Imagen

Última versión del codec x264 (inglés) | Web en español sobre el codec x264
Manual de ripeo con x264 en línea de comandos (español) | Parámetros de codificación (inglés)
Contenedor Matroska (español) | Matroska en wikipedia (español): software de PC compatible, etc.
MKVToolnix, herramientas de edición para matroska (inglés) | Añadir cadenas de audio o subtítulos con MKVToolnix (español)
MKVExtractGui | Manual de extracción de cadenas de audio/vídeo/subtítulos en MKV (español)
Cómo crear BDRips MKV/x264 1080p o 720p (español) | Guía avanzada para crear DVDRips MKV/x264 paso a paso (inglés)


 [ Agregar los 2 enlaces a su cliente ed2k ]
A partir de ahora, no contestaré a cuestiones que se me planteen en los foros. Sólo contestaré mensajes privados.
----------------
From now on, I will not answer to messages in the forums. I will only answer private messages.
Avatar de Usuario
roisiano
 
Mensajes: 371
Temas: 142
Registrado: 16 Oct 2012, 15:36
Ubicación: Al final del río.

Re: Ransom! (Alex Segal, 1956) DVDRip VO

Notapor mifune » 03 Nov 2014, 11:16

Muchas gracias, me apunto las dos copias por si acaso saco tiempo ...
Cine, cine, cine. Más cine, por favor...
Avatar de Usuario
mifune
 
Mensajes: 5686
Temas: 784
Registrado: 02 Oct 2012, 19:48
Ubicación: Welcome to the Jungle

Re: Ransom! (Alex Segal, 1956) DVDRip VO

Notapor samueleliseu » 03 Nov 2014, 11:39

El Corte Ingles ha editado esta película en la coleccion CineClub cin subs en Castellano y português.
Si algun companero la tiene...
Muchas gracias.
samuel
samueleliseu
 
Mensajes: 550
Temas: 10
Registrado: 18 Oct 2012, 09:54

Re: Ransom! (Alex Segal, 1956) DVDRip VO

Notapor cinefilototal » 03 Nov 2014, 11:54

El audio en castellano del ripeo de nordlingen lo tengo descargado, si alguien lo quiere sincronizar a esta copia que me lo diga y se lo paso.

Saludos. :hi:
Avatar de Usuario
cinefilototal
 
Mensajes: 589
Registrado: 16 Oct 2012, 18:04

Re: Ransom! (Alex Segal, 1956) DVDRip VO

Notapor mifune » 03 Nov 2014, 13:08

La peli de nord ha bajado rapídisimo, el doblaje es clásico y de los buenos, buenos. Si nadie tiene mucha prisa, me pido la sincro.
Cine, cine, cine. Más cine, por favor...
Avatar de Usuario
mifune
 
Mensajes: 5686
Temas: 784
Registrado: 02 Oct 2012, 19:48
Ubicación: Welcome to the Jungle

Re: Ransom! (Alex Segal, 1956) DVDRip VO

Notapor iuliano » 03 Nov 2014, 13:48

glenn ford era un aspirante a duro
jejeje
Imagen
Avatar de Usuario
iuliano
 
Mensajes: 1210
Temas: 51
Registrado: 21 Abr 2013, 16:48

Re: Ransom! (Alex Segal, 1956) DVDRip VO

Notapor boettcher » 03 Nov 2014, 16:08

Muchas gracias, roisiano.

Que conste que la descargo únicamente por el bueno de Leslie Nielsen, que si no... :P

Saludos.
Avatar de Usuario
boettcher
 
Mensajes: 1456
Temas: 39
Registrado: 17 Oct 2012, 11:01

Re: Ransom! (Alex Segal, 1956) DVDRip VO

Notapor Toma Alistar » 03 Nov 2014, 16:14

iuliano escribió:glenn ford era un aspirante a duro
jejeje


Según Brando, con el que compartió protagonismo en una parida titulada The Teahouse of the August Moon, insistía en que le enfocaran sólo su lado bueno.
Me llamó mucho la atención cuando lo leí, porque a mí me parece igual lo saquen por la derecha o por la izquierda.
Avatar de Usuario
Toma Alistar
 
Mensajes: 1679
Temas: 101
Registrado: 16 Jul 2014, 19:21
Ubicación: Lejos del rebaño

Re: Ransom! (Alex Segal, 1956) DVDRip VO

Notapor jail » 03 Nov 2014, 16:33

Gracias.
jail
 
Mensajes: 4028
Temas: 6
Registrado: 18 Oct 2012, 14:34

Re: Ransom! (Alex Segal, 1956) DVDRip VO

Notapor Forrest Gump » 03 Nov 2014, 17:53

¡Muchas gracias, roi! :drinks:

samueleliseu escribió:El Corte Ingles ha editado esta película en la coleccion CineClub cin subs en Castellano y português.
Si algun companero la tiene...


Pues gran noticia. Ojalá aparezcan esos subs. :)
Johnny: How many men have you forgotten?
Vienna: As many women as you've remembered.
Avatar de Usuario
Forrest Gump
 
Mensajes: 809
Temas: 17
Registrado: 22 Oct 2012, 08:29
Ubicación: Al este del paraíso.

Siguiente

Volver a Largos Clásicos

¿Quién está conectado?

Usuarios navegando por este Foro: Bing [Bot], eduga y 2 invitados