The Plank (Eric Sykes, 1979) DVDRip

Moderadores: Monsieur Lange, jotarapidup

Reino Unido The Plank (Eric Sykes, 1979) DVDRip

Notapor Initiand » 23 Mar 2014, 22:58

Eric Sykes-The Plank (1979) DVDrip x264 no dialog

Imagen
Regie: Eric Sykes
Land / Jahr: GB / 1979
Laufzeit: 28 min
Written By: Eric Sykes
Produced By: Dennis Kirkland
Channel: ITV (Thames)
Darsteller: Eric Sykes, Arthur Lowe, Lionel Blair, Henry Cooper, Harry H. Corbett, Bernard Cribbins, Robert Dorning, Diana Dors, Charlie Drake, Jimmy Edwards, Liza Goddard, Deryck Guyler, Charles Hawtrey, Frankie Howerd, James Hunt, Wilfrid Hyde-White, Joanna Lumley, Kenny Lynch, Brian Murphy, Kate O'Mara, Ann Sidney, Reg Varney, Frank Windsor, Pat Gorman
http://www.imdb.com/title/tt0079722/?ref_=fn_al_tt_2
http://www.filmaffinity.com/es/film127725.html

This is a pantomime about two construction workers, who discover that a plank is missing from the floor they are just building. They discover that two children have taken the plank and use it for a seesaw. Instead of taking it back, they decide to go and buy a new one. However, this may not have been a very good idea, for all the troubles and problems they encounter, just by buying a plank, are countless.
This homage to slapstick comedy boasts a whole host of familiar faces including Jimmy Edwards,Roy Castle, Hattie Jacques, John Junkin and Stratford Johns

Zitat:
Eric Sykes and Tommy Cooper are two inept joiners laying the floor of a new home; unfortunately they require one final plank to complete the task. This short charts the chaos they cause returning from thelumber year; including driving off with Roy Castle clinging to the troublesome plank on the roof of their car and stopping the traffic with policeman Jimmy Edwards in a discussion over directions to Malthouse Passage.

Código: Seleccionar todo
Complete name                    : D:\Share\Eric Sykes-The Plank (1979) DVDrip by InI x264 no dialog new.mkv
Format                           : Matroska
File size                        : 413 MiB
Duration                         : 27mn 42s
Overall bit rate                 : 2 084 Kbps
Encoded date                     : UTC 2014-04-01 17:10:50
Writing application              : mkvmerge v6.8.0 ('Theme for Great Cities') 32bit built on Mar  2 2014 21:27:07
Writing library                  : libebml v1.3.0 + libmatroska v1.4.1

Video
ID                               : 1
Format                           : AVC
Format/Info                      : Advanced Video Codec
Format profile                   : High@L3.1
Format settings, CABAC           : Yes
Format settings, ReFrames        : 4 frames
Codec ID                         : V_MPEG4/ISO/AVC
Duration                         : 27mn 42s
Bit rate                         : 1 890 Kbps
Width                            : 720 pixels
Height                           : 528 pixels
Display aspect ratio             : 4:3
Frame rate                       : 25.000 fps
Color space                      : YUV
Chroma subsampling               : 4:2:0
Bit depth                        : 8 bits
Scan type                        : Progressive
Bits/(Pixel*Frame)               : 0.199
Stream size                      : 367 MiB (89%)
Writing library                  : x264 core 138 r2358 9e941d1
Encoding settings                : cabac=1 / ref=3 / deblock=1:-1:-1 / analyse=0x3:0x113 / me=hex / subme=7 / psy=1 / psy_rd=1.00:0.15 / mixed_ref=1 / me_range=16 / chroma_me=1 / trellis=1 / 8x8dct=1 / cqm=0 / deadzone=21,11 / fast_pskip=1 / chroma_qp_offset=-3 / threads=3 / lookahead_threads=1 / sliced_threads=0 / nr=0 / decimate=1 / interlaced=0 / bluray_compat=0 / constrained_intra=0 / bframes=3 / b_pyramid=2 / b_adapt=1 / b_bias=0 / direct=1 / weightb=1 / open_gop=0 / weightp=2 / keyint=250 / keyint_min=25 / scenecut=40 / intra_refresh=0 / rc_lookahead=40 / rc=2pass / mbtree=1 / bitrate=1890 / ratetol=1.0 / qcomp=0.60 / qpmin=0 / qpmax=69 / qpstep=4 / cplxblur=20.0 / qblur=0.5 / vbv_maxrate=17500 / vbv_bufsize=17500 / nal_hrd=none / ip_ratio=1.40 / aq=1:1.00
Language                         : English

Audio
ID                               : 2
Format                           : AC-3
Format/Info                      : Audio Coding 3
Mode extension                   : CM (complete main)
Codec ID                         : A_AC3
Duration                         : 27mn 42s
Bit rate mode                    : Constant
Bit rate                         : 192 Kbps
Channel(s)                       : 2 channels
Channel positions                : Front: L R
Sampling rate                    : 48.0 KHz
Bit depth                        : 16 bits
Compression mode                 : Lossy
Stream size                      : 38.0 MiB (9%)


Ich musste noch mal neu codieren, da die letzten 4min nicht in der Datei enthalten waren.

Imagen
Imagen
Imagen
Imagen
Imagen
Imagen


Sin diálogos:
eD2K link Eric Sykes-The Plank (1979) DVDrip by InI x264 no dialog new.mkv [412.92 Mb] 


I had new to encode, because after 23min was finish! enjoy
Última edición por Initiand el 01 Abr 2014, 18:45, editado 1 vez en total
Avatar de Usuario
Initiand
 
Mensajes: 517
Temas: 205
Registrado: 21 Oct 2012, 18:59

Re: The Plank (Eric Sykes, 1979) DVDrip Ningunos diálogos

Notapor Bunker » 24 Mar 2014, 00:48

Gracias, initiand.
Avatar de Usuario
Bunker
 
Mensajes: 4988
Temas: 211
Registrado: 02 Oct 2012, 23:05

Re: The Plank (Eric Sykes, 1979) DVDRip

Notapor garitero » 24 Mar 2014, 01:27

Thanks.
garitero
 
Mensajes: 106
Registrado: 22 Oct 2012, 19:51

Re: The Plank (Eric Sykes, 1979) DVDRip

Notapor yojimbo » 24 Mar 2014, 22:07

Thanks, Initiand.
Avatar de Usuario
yojimbo
 
Mensajes: 6649
Temas: 17
Registrado: 18 Oct 2012, 13:25

Re: The Plank (Eric Sykes, 1979) DVDRip

Notapor JGUTII » 26 Mar 2014, 06:00

Gracias de nuevo, Initiand. :hi:
Imagen
Avatar de Usuario
JGUTII
 
Mensajes: 1627
Temas: 3
Registrado: 19 Oct 2012, 04:57
Ubicación: Ciudad del Betis

Re: The Plank (Eric Sykes, 1979) DVDRip

Notapor Initiand » 01 Abr 2014, 18:47

I had new to encode, because after 23min was finish! I missed 4 min.

eD2K link Eric Sykes-The Plank (1979) DVDrip by InI x264 no dialog new.mkv [412.92 Mb] 
Avatar de Usuario
Initiand
 
Mensajes: 517
Temas: 205
Registrado: 21 Oct 2012, 18:59

Re: The Plank (Eric Sykes, 1979) DVDRip

Notapor JGUTII » 03 Abr 2014, 22:17

Initiand escribió:I had new to encode, because after 23min was finish! I missed 4 min.

eD2K link Eric Sykes-The Plank (1979) DVDrip by InI x264 no dialog new.mkv [412.92 Mb] 


Y... Gracias otra vez, Initiand. :hi:
Imagen
Avatar de Usuario
JGUTII
 
Mensajes: 1627
Temas: 3
Registrado: 19 Oct 2012, 04:57
Ubicación: Ciudad del Betis

Re: The Plank (Eric Sykes, 1979) DVDRip

Notapor yojimbo » 17 Jul 2014, 18:33

Gracias por la correción del archivo, Initiand. No me había percatado.

Dejo la sinopsis en español.

Sinopsis: Dos trabajadores de la construcción descubren que falta un tablón del suelo que están construyendo y que dos niños lo están usando de balancín. En lugar de reponer la viga, deciden ir a comprar una nueva. Sin embargo, esta parece que no ha sido una buena idea, ya que la compra de una tabla de madera puede traer innumerables problemas.

Remake de "The Plank" (1967). (FILMAFFINITY)

Saludos.
Avatar de Usuario
yojimbo
 
Mensajes: 6649
Temas: 17
Registrado: 18 Oct 2012, 13:25

Re: The Plank (Eric Sykes, 1979) DVDRip

Notapor Bunker » 17 Jul 2014, 18:35

Lo altero también. Parece que ninguno la hemos visto todavía. :risa:
Avatar de Usuario
Bunker
 
Mensajes: 4988
Temas: 211
Registrado: 02 Oct 2012, 23:05

Re: The Plank (Eric Sykes, 1979) DVDRip

Notapor yojimbo » 17 Jul 2014, 18:39

Yo la estoy viendo ahora mismo y aproveché para agregar una sinopsis a FA. :hi:
Avatar de Usuario
yojimbo
 
Mensajes: 6649
Temas: 17
Registrado: 18 Oct 2012, 13:25


Volver a Cortos Modernos

¿Quién está conectado?

Usuarios navegando por este Foro: No hay usuarios registrados visitando el Foro y 1 invitado