Sticenik (Djordje Kadijevic, 1973) SATRip VOSE

The Ward

Moderadores: Monsieur Lange, jotarapidup

ex Yugoslavia Sticenik (Djordje Kadijevic, 1973) SATRip VOSE

Notapor vozidar » 08 Ago 2014, 12:22

Imagen

IMDB: http://www.imdb.com/title/tt0201177/
FILMAFFINITY: http://www.filmaffinity.com/es/film799338.html


Director
Djordje Kadijevic

Guión
Filip David

Fotografía
Branko Ivatovic (B&W)

Reparto
Milan Mihailovic, Branko Plesa, Dusan Janicijevic, Toma Kuruzovic, Ljubomir Cipranic, Svetlana Blagojevic, Nadezda Vukicevic, Damjan Klasnja, Bogdan Jakus

Productora
Radiotelevizija Beograd
Género
Drama. Terror | Mediometraje. Telefilm
Sinopsis
Un joven huye en campo abierto de un misterioso hombre. Cuando llega a un edificio, pide asilo, y le dejan entrar. Se trata de un centro psiquiátrico. El hombre que lo perseguía sigue frente al edificio, e incluso reacciona violentamente cuando le impiden el paso. Aun así el joven no quiere hablar, niega estar loco y sólo busca que le dejen estar allí.

Críticas
Basada en el relato de Filip David, la película le propone un nuevo concepto y el final es muy diferente de la historia original. Kadijevic logra uno de los trabajos más interesantes de su carrera. Al mismo tiempo, este mediometraje supone una obra de arte atípica dentro de la filmografía serbia, sobre todo en lo que supone el tema (la persecución metafísica) y su ejecución. Llena de simbolismo. La fantástica fotografía (la luz gótica). El trabajo actoral de Dusan Janicijevic, Milan Mihailovic y Branko Plesa es simplemente espectacular. Técnicamente hablando, la historia tiene un final, pero en esencia, todo está abierto. Una joya oculta. 10/10 (djunisijecvorovic, de Serbia, en IMDB)
-----------------------------------------------------------------------------------------------------------------

Código: Seleccionar todo
General
Format                                   : AVI
Format/Info                              : Audio Video Interleave
File size                                : 500 MiB
Duration                                 : 42mn 43s
Overall bit rate                         : 1 636 Kbps
Writing application                      : VirtualDubMod 1.5.4.1 (build 2178/release)
Writing library                          : VirtualDubMod build 2178/release

Video
ID                                       : 0
Format                                   : MPEG-4 Visual
Format profile                           : Advanced Simple@L5
Format settings, BVOP                    : 1
Format settings, QPel                    : No
Format settings, GMC                     : No warppoints
Format settings, Matrix                  : Custom
Codec ID                                 : XVID
Codec ID/Hint                            : XviD
Duration                                 : 42mn 43s
Bit rate                                 : 1 501 Kbps
Width                                    : 592 pixels
Height                                   : 448 pixels
Display aspect ratio                     : 4:3
Frame rate                               : 25.000 fps
Color space                              : YUV
Chroma subsampling                       : 4:2:0
Bit depth                                : 8 bits
Scan type                                : Progressive
Compression mode                         : Lossy
Bits/(Pixel*Frame)                       : 0.226
Stream size                              : 459 MiB (92%)
Writing library                          : XviD 1.2.1 (UTC 2008-12-04)

Audio
ID                                       : 1
Format                                   : MPEG Audio
Format version                           : Version 1
Format profile                           : Layer 3
Mode                                     : Joint stereo
Codec ID                                 : 55
Codec ID/Hint                            : MP3
Duration                                 : 42mn 43s
Bit rate mode                            : Constant
Bit rate                                 : 128 Kbps
Channel(s)                               : 2 channels
Sampling rate                            : 48.0 KHz
Compression mode                         : Lossy
Stream size                              : 39.1 MiB (8%)
Alignment                                : Aligned on interleaves
Interleave, duration                     : 80 ms (2.00 video frames)
Interleave, preload duration             : 504 ms
Writing library                          : LAME3.98r
Encoding settings                        : -m j -V 4 -q 2 -lowpass 17 -b 128


Imagen
Imagen
Imagen

eD2K link Sticenik.1973)-YUF domaci.avi [500.02 Mb] 

Subtítulos en español:
http://www.subdivx.com/X6XMjIyOTE2X-sticenik-1973.html
vozidar
 
Mensajes: 1094
Temas: 370
Registrado: 17 Oct 2012, 04:58

Re: Sticenik (Djordje Kadijevic, 1973) SATRip VOSE

Notapor Prudencio » 08 Ago 2014, 12:31

Muchas gracias, Vozidar. :hi:
Avatar de Usuario
Prudencio
 
Mensajes: 2957
Temas: 5
Registrado: 16 Oct 2012, 17:46

Re: Sticenik (Djordje Kadijevic, 1973) SATRip VOSE

Notapor yojimbo » 08 Ago 2014, 13:41

Muchas gracias, vozidar.

Veo que no te gustó mucho, pero probaré

Saludos.
Avatar de Usuario
yojimbo
 
Mensajes: 6649
Temas: 17
Registrado: 18 Oct 2012, 13:25

Re: Sticenik (Djordje Kadijevic, 1973) SATRip VOSE

Notapor jamesdean » 09 Ago 2014, 12:22

Gracias vozidar por compartir otra peli más de los paises del Este. gracias por tu amabilidad
jamesdean
 
Mensajes: 168
Registrado: 20 Ene 2014, 11:02

Re: Sticenik (Djordje Kadijevic, 1973) SATRip VOSE

Notapor JGUTII » 19 Ago 2014, 18:10

Muchas gracias, vozidar. :hi:
Imagen
Avatar de Usuario
JGUTII
 
Mensajes: 1627
Temas: 3
Registrado: 19 Oct 2012, 04:57
Ubicación: Ciudad del Betis


Volver a Cortos Modernos

¿Quién está conectado?

Usuarios navegando por este Foro: No hay usuarios registrados visitando el Foro y 1 invitado