Finian's Rainbow (Francis Ford Coppola, 1968) DVDRip Dual SE

El valle del arco iris

Moderadores: Monsieur Lange, jotarapidup

Estados Unidos Finian's Rainbow (Francis Ford Coppola, 1968) DVDRip Dual SE

Notapor locotus » 21 Oct 2016, 17:28

Finian's Rainbow (1968)
Imagen

Sinopsis
Un misterioso irlandés, Finian McLonergan (Fred Astaire), y su hija Sharon (Petula Clark) llegan al Valle del Arco Iris, que vive del cultivo de tabaco y está dominado por el malvado juez Rawkins. Finian y Sharon llevan consigo un lingote de oro que han robado al duende Ogg. Piensan que, si lo entierran en el valle, crecerá y se transformará en un gran tesoro. Pero Ogg se presenta en el pueblo con la intención de recobrar su lingote. Mientras tanto, Sharon se enamora de uno de los campesinos. (FILMAFFINITY)

Premios:
1968: 2 nominaciones al Oscar: Mejor sonido, banda sonora (Adaptada)
1968: Globos de Oro: 5 nominaciones, incluyendo mejor película comedia/musical

IMDB
Directed by Francis Ford Coppola
Writing Credits: E.Y. Harburg ... (book & screenplay)
Fred Saidy ... (book & screenplay)

Reparto:
Fred Astaire ... Finian McLonergan
Petula Clark ... Sharon McLonergan
Tommy Steele ... Og
Don Francks ... Woody Mahoney
Keenan Wynn ... Senator Billboard Rawkins
Barbara Hancock ... Susan the Silent
Al Freeman Jr. ... Howard
Ronald Colby ... Buzz Collins
Dolph Sweet ... Sheriff
Wright King ... District Attorney
Louil Silas ... Henry

Runtime: 141 min
Sound Mix: Mono (35 mm prints)| 70 mm 6-Track (70 mm prints)
Color: Color (Technicolor)
Aspect Ratio: 2.35 : 1

Capturas:

ImagenImagenImagenImagenImagen

ImagenImagenImagenImagenImagen

Datos:
Código: Seleccionar todo
General
Unique ID                                : 226443989515948311959317736103579180651 (0xAA5B86A8D291805F848E4C9532235E6B)
Complete name                            : Finian's Rainbow (1968) DVDrip.Dual.mkv
Format                                   : Matroska
Format version                           : Version 4 / Version 2
File size                                : 2.90 GiB
Duration                                 : 2 h 30 min
Overall bit rate                         : 2 762 kb/s
Encoded date                             : UTC 2016-10-21 17:13:48
Writing application                      : mkvmerge v7.9.0 ('Birds') 32bit
Writing library                          : libebml v1.3.1 + libmatroska v1.4.2

Video
ID                                       : 1
Format                                   : AVC
Format/Info                              : Advanced Video Codec
Format profile                           : High@L4.1
Format settings, CABAC                   : Yes
Format settings, ReFrames                : 4 frames
Codec ID                                 : V_MPEG4/ISO/AVC
Duration                                 : 2 h 30 min
Bit rate                                 : 2 341 kb/s
Width                                    : 720 pixels
Height                                   : 304 pixels
Display aspect ratio                     : 2.35:1
Frame rate mode                          : Constant
Frame rate                               : 23.976 (24000/1001) FPS
Color space                              : YUV
Chroma subsampling                       : 4:2:0
Bit depth                                : 8 bits
Scan type                                : Progressive
Bits/(Pixel*Frame)                       : 0.446
Stream size                              : 2.46 GiB (85%)
Writing library                          : x264 core 148 r2721 72d53ab
Encoding settings                        : cabac=1 / ref=4 / deblock=1:-1:-1 / analyse=0x3:0x133 / me=umh / subme=7 / psy=1 / psy_rd=1.00:0.15 / mixed_ref=1 / me_range=16 / chroma_me=1 / trellis=1 / 8x8dct=1 / cqm=0 / deadzone=21,11 / fast_pskip=1 / chroma_qp_offset=-3 / threads=3 / lookahead_threads=1 / sliced_threads=0 / nr=0 / decimate=1 / interlaced=0 / bluray_compat=0 / constrained_intra=0 / bframes=3 / b_pyramid=2 / b_adapt=2 / b_bias=0 / direct=3 / weightb=1 / open_gop=0 / weightp=2 / keyint=240 / keyint_min=23 / scenecut=40 / intra_refresh=0 / rc_lookahead=60 / rc=2pass / mbtree=1 / bitrate=2341 / ratetol=1.0 / qcomp=0.60 / qpmin=0 / qpmax=69 / qpstep=4 / cplxblur=20.0 / qblur=0.5 / vbv_maxrate=50000 / vbv_bufsize=62500 / nal_hrd=none / filler=0 / ip_ratio=1.40 / aq=1:1.00
Language                                 : English
Default                                  : Yes
Forced                                   : No

Audio #1
ID                                       : 2
Format                                   : AC-3
Format/Info                              : Audio Coding 3
Mode extension                           : CM (complete main)
Format settings, Endianness              : Big
Codec ID                                 : A_AC3
Duration                                 : 2 h 30 min
Bit rate mode                            : Constant
Bit rate                                 : 224 kb/s
Channel(s)                               : 6 channels
Channel positions                        : Front: L C R, Side: L R, LFE
Sampling rate                            : 48.0 kHz
Frame rate                               : 31.250 FPS (1536 spf)
Compression mode                         : Lossy
Stream size                              : 241 MiB (8%)
Language                                 : English
Default                                  : Yes
Forced                                   : No

Audio #2
ID                                       : 3
Format                                   : AC-3
Format/Info                              : Audio Coding 3
Mode extension                           : CM (complete main)
Format settings, Endianness              : Big
Codec ID                                 : A_AC3
Duration                                 : 2 h 30 min
Bit rate mode                            : Constant
Bit rate                                 : 192 kb/s
Channel(s)                               : 2 channels
Channel positions                        : Front: L R
Sampling rate                            : 48.0 kHz
Frame rate                               : 31.250 FPS (1536 spf)
Compression mode                         : Lossy
Stream size                              : 207 MiB (7%)
Language                                 : Spanish
Default                                  : No
Forced                                   : No

Text #1
ID                                       : 4
Format                                   : VobSub
Muxing mode                              : zlib
Codec ID                                 : S_VOBSUB
Codec ID/Info                            : Picture based subtitle format used on DVDs
Duration                                 : 2 h 21 min
Bit rate                                 : 1 929 b/s
Count of elements                        : 1715
Stream size                              : 1.95 MiB (0%)
Language                                 : English
Default                                  : No
Forced                                   : No

Text #2
ID                                       : 5
Format                                   : VobSub
Muxing mode                              : zlib
Codec ID                                 : S_VOBSUB
Codec ID/Info                            : Picture based subtitle format used on DVDs
Duration                                 : 2 h 25 min
Bit rate                                 : 1 685 b/s
Count of elements                        : 1716
Stream size                              : 1.75 MiB (0%)
Language                                 : Spanish
Default                                  : No
Forced                                   : No


Subtítulos en inglés y español incluidos en el contenedor MKV. Ambos proceden del DVD.
Con esta termino la serie sobre los musicales interpretados por Fred Astaire.

Elink:
eD2K link Finian's Rainbow (1968) DVDrip.Dual.mkv [2.90 Gb] 
“Si no lees los periódicos estás desinformado”.
Y si los lees estás mal informado”.
Denzel Washington.
Avatar de Usuario
locotus
 
Mensajes: 873
Temas: 430
Registrado: 16 Oct 2012, 16:18

Re: Finian's Rainbow (Francis Ford Coppola, 1968) DVDRip Dual SE

Notapor jail » 21 Oct 2016, 23:38

Gracias, locotus, por esta serie.
jail
 
Mensajes: 4160
Temas: 6
Registrado: 18 Oct 2012, 13:34

Re: Finian's Rainbow (Francis Ford Coppola, 1968) DVDRip Dual SE

Notapor paljoe » 22 Oct 2016, 10:35

gracias, locotus: la verdad es que ésta la tengo en mi exigua lista negra de musicales, pero voy a darle otra oportunidad.
Avatar de Usuario
paljoe
 
Mensajes: 690
Temas: 4
Registrado: 15 Dic 2012, 23:00

Re: Finian's Rainbow (Francis Ford Coppola, 1968) DVDRip Dual SE

Notapor yojimbo » 09 Ene 2017, 15:30

Muchas gracias, locotus.
Avatar de Usuario
yojimbo
 
Mensajes: 6796
Temas: 17
Registrado: 18 Oct 2012, 12:25

Re: Finian's Rainbow (Francis Ford Coppola, 1968) DVDRip Dual SE

Notapor joramor » 10 Ene 2017, 12:21

Muchas gracias, locotus. Salu2.
joramor
 
Mensajes: 53
Registrado: 28 Nov 2012, 19:59

Re: Finian's Rainbow (Francis Ford Coppola, 1968) DVDRip Dual SE

Notapor adelon » 08 Ene 2018, 10:30

Gracias, Locotus, vayamos por el último musical del amigo Fred. Saludos.
Avatar de Usuario
adelon
 
Mensajes: 342
Registrado: 16 Oct 2012, 15:17


Volver a Largos Modernos

¿Quién está conectado?

Usuarios navegando por este Foro: No hay usuarios registrados visitando el Foro y 1 invitado