Crimen imperfecto (Fernando Fernán Gómez, 1970) SATRip VO

Moderadores: Monsieur Lange, jotarapidup

España Crimen imperfecto (Fernando Fernán Gómez, 1970) SATRip VO

Notapor DCINE » 28 Jul 2017, 15:35

Crimen imperfecto
1970

Imagen



DIRECTOR: Fernando Fernán Gómez
PRODUCTORA: Filmayer / Pedro Masó Producciones Cinematográficas
GUIÓN: Pedro Masó, Antonio Vich
MÚSICA: Antón García Abril
FOTOGRAFÍA: Juan Mariné



ARGUMENTO Salomón, un detective privado especializado en asuntos de adulterio, y su fiel ayudante Torcuato, se ven involucrados en un caso criminal. Ambos son testigos de la muerte de uno de sus clientes en su propio despacho, pero, inexplicablemente, el cadáver desaparece antes de que llegue la policía. Entonces deciden averiguar por su cuenta el móvil del crimen para poder encontrar al asesino y esclarecer el caso. (FILMAFFINITY) IMDB: http://www.imdb.com/title/tt0065590/



Reparto: Fernando Fernán Gómez, José Luis López Vázquez, Rosanna Yanni, Jesús Puente, George Rigaud, Gogó Rojo, Álvaro de Luna


Datos Técnicos:

Lástiama que la copia emitida en Somos no respecta el formato original 1:85

Imagen

Código: Seleccionar todo
General:

General
Complete name                    : Crimen imperfecto (1970) DVBRip Castellano.avi
Format                           : AVI
Format/Info                      : Audio Video Interleave
Format profile                   : OpenDML
File size                        : 1.35 GiB
Duration                         : 1h 29mn
Overall bit rate                 : 2 163 Kbps
Writing application              : Lavf51.12.1

Video
ID                               : 0
Format                           : xvid
Codec ID                         : xvid
Duration                         : 1h 29mn
Bit rate                         : 2 015 Kbps
Width                            : 720 pixels
Height                           : 540 pixels
Display aspect ratio             : 4:3
Frame rate                       : 50.000 fps
Bits/(Pixel*Frame)               : 0.104
Stream size                      : 1.25 GiB (93%)

Audio
ID                               : 1
Format                           : MPEG Audio
Format version                   : Version 1
Format profile                   : Layer 3
Mode                             : Joint stereo
Mode extension                   : MS Stereo
Codec ID                         : 55
Codec ID/Hint                    : MP3
Duration                         : 1h 29mn
Bit rate mode                    : Constant
Bit rate                         : 128 Kbps
Channel(s)                       : 2 channels
Sampling rate                    : 44.1 KHz
Compression mode                 : Lossy
Stream size                      : 81.6 MiB (6%)
Alignment                        : Aligned on interleaves
Interleave, duration             : 26 ms (1.31 video frame)







Capturas:

Imagen
Imagen
Imagen
Imagen

Enlace: (Ripeo de Gorgin)

eD2K link Crimen imperfecto (1970) DVBRip Castellano.avi [1.35 Gb] 
Avatar de Usuario
DCINE
 
Mensajes: 1062
Temas: 115
Registrado: 30 Jul 2016, 19:09

Re: Crimen imperfecto (Fernando Fernán Gómez, 1970) SATRip VO

Notapor tuscarola » 29 Jul 2017, 18:53

Merci DCINE. La bajo pues no la he visto.
Imagen
Imagen
Imagen
Imagen
In Memoriam:
Juan Manuel Soriano
Carmen Lombarte
Maribel Casals
Felipe Peña
Alfonso Santigosa
Rafael Navarro
Avatar de Usuario
tuscarola
 
Mensajes: 1437
Temas: 16
Registrado: 25 Dic 2012, 20:38
Ubicación: En el Tarragonés

Re: Crimen imperfecto (Fernando Fernán Gómez, 1970) SATRip VO

Notapor tonapar1 » 31 Jul 2017, 00:16

Muchas gracias por el ripeo a dcine. Un saludo.
Avatar de Usuario
tonapar1
 
Mensajes: 2561
Registrado: 16 Oct 2012, 19:19


Volver a Largos Modernos

¿Quién está conectado?

Usuarios navegando por este Foro: No hay usuarios registrados visitando el Foro y 2 invitados