Schamlos (Eddy Saller, 1968) DVDRip VOSE

Moderadores: Monsieur Lange, jotarapidup

Austria Schamlos (Eddy Saller, 1968) DVDRip VOSE

Notapor hammett » 23 Sep 2017, 11:39

Deadhorse88 en Cinemageddon


SCHAMLOS

Imagen

IMDB


AÑO: 1968
NACIONALIDAD:Alemania/Austria/Francia
GÉNERO: Crime/Drama
DIRECTOR: Eddie Saller
PRODUCTOR: Herbert Heidmann
GUIÓN: Karl Hans Koizar, E. Neumayr, Theodor Ottawa y Eddy Saller.
MÚSICA: Gerhard Heinz
FOTOGRAFÍA: Walter Partsch
MONTAJE: Dagmar Koschu
REPARTO: Thomas Astor, Gino Baldini, Rolf Eden, Herbert Kersten, Udo Kier, Vladimir Medar, Marina Paal, Joe Palt.
ARGUMENTO: Udo Kier es Alexander Pohlmann. Con apenas 20 años de edad, es el jefe de una banda de hampones, que controla el mundo de la noche de una gran ciudad y ofrece “protección” a los dueños de los negocios. (FILMAFFINITY)

CON APENAS CINCO TÍTULOS EN SU FILMOGRAFÍA, LOS TRES ÚLTIMOS ENCUADRADOS EN EL CINE ERÓTICO, EDDY SALLER OSTENTA ESA EXTRAÑA CATEGORÍA DENOMINADA DE CULTO, EXCLUSIVAMENTE POR SUS DOS PRIMEROS FILMS, DIE GEIBEL DES FLEISCHES (1965) Y EL FILM QUE NOS OCUPA HOY, SCHAMLOS. SE TRATA DE UNA PELÍCULA DE AMBIENTES CRIMINALES EN LA AUSTRIA DE LOS AÑOS SESENTA. CHULOS, PROSTITUTAS, CRIMINALES Y TODO TIPO DE PERSONAJES DE LOS BAJOS FONDOS SE DAN CITA EN EL FILM. EN EL PAPEL PRINCIPAL, NOS ENCONTRAMOS CON UDO KIER, UNA PROMETEDORA ESTRELLA QUE NUNCA LLEGÓ A DESPEGAR Y QUE DEAMBULÓ POR MULTITUD DE CINEMATOGRAFÍAS EUROPEAS Y TAMBIÉN LA AMERICANA. AHORA OS PONGO A DISPOSICIÓN LOS SUBTÍTULOS EN CASTELLANO PARA QUE PODÁIS VER SU SEGUNDO LARGOMETRAJE Y DECIDIR SI ES O NO ACERTADA LA CATEGORÍA DE CULT MOVIE QUE POSEE.

CAPTURAS

Imagen

Imagen

Imagen

Imagen

Imagen


DATOS TECNICOS

Spoiler:
General
Complete name : Schamlos.avi
Format : AVI
Format/Info : Audio Video Interleave
File size : 1.36 GiB
Duration : 1h 12mn
Overall bit rate : 2 668 Kbps

Video
ID : 0
Format : MPEG-4 Visual
Format profile : Advanced Simple@L5
Format settings, BVOP : 2
Format settings, QPel : No
Format settings, GMC : No warppoints
Format settings, Matrix : Default (MPEG)
Muxing mode : Packed bitstream
Codec ID : XVID
Codec ID/Hint : XviD
Duration : 1h 12mn
Bit rate : 2 466 Kbps
Width : 720 pixels
Height : 576 pixels
Display aspect ratio : 4:3
Frame rate : 25.000 fps
Standard : PAL
Color space : YUV
Chroma subsampling : 4:2:0
Bit depth : 8 bits
Scan type : Progressive
Compression mode : Lossy
Bits/(Pixel*Frame) : 0.238
Stream size : 1.25 GiB (92%)
Writing library : XviD 1.2.1 (UTC 2008-12-04)

Audio
ID : 1
Format : AC-3
Format/Info : Audio Coding 3
Mode extension : CM (complete main)
Format settings, Endianness : Big
Codec ID : 2000
Duration : 1h 12mn
Bit rate mode : Constant
Bit rate : 192 Kbps
Channel(s) : 2 channels
Channel positions : Front: L R
Sampling rate : 48.0 KHz
Bit depth : 16 bits
Compression mode : Lossy
Stream size : 99.9 MiB (7%)
Alignment : Split accross interleaves
Interleave, duration : 40 ms (1.00 video frame)
Interleave, preload duration : 500 ms


Enlace: eD2K link Schamlos.avi [1.36 Gb] 

Subtítulos castellanos en descarga directa: http://www.subdivx.com/X6XNDc4OTAzX-schamlos-1968.html
Avatar de Usuario
hammett
 
Mensajes: 1132
Temas: 253
Registrado: 17 Nov 2012, 17:51

Re: Schamlos (Eddy Saller, 1968) DVDRip VOSE

Notapor Eddie Constanti » 23 Sep 2017, 13:35

La veré, cómo no. :aplauso:
Avatar de Usuario
Eddie Constanti
 
Mensajes: 3458
Temas: 160
Registrado: 05 Ago 2013, 21:31
Ubicación: Vallès Oriental

Re: Schamlos (Eddy Saller, 1968) DVDRip VOSE

Notapor Prudencio » 23 Sep 2017, 14:25

Pues a descubrir a Saller.
Muchas gracias, hammett. :hi:
Avatar de Usuario
Prudencio
 
Mensajes: 2912
Temas: 5
Registrado: 16 Oct 2012, 18:46

Re: Schamlos (Eddy Saller, 1968) DVDRip VOSE

Notapor Graveland » 23 Sep 2017, 16:47

Muchas gracias, hammett.
Avatar de Usuario
Graveland
 
Mensajes: 2064
Temas: 289
Registrado: 22 Nov 2012, 16:30

Re: Schamlos (Eddy Saller, 1968) DVDRip VOSE

Notapor sete » 23 Sep 2017, 19:26

Muchas gracias, hammett.
:hi:
Este mundo está traicionando a la vida.
José Luis Sampedro
Avatar de Usuario
sete
 
Mensajes: 2283
Registrado: 22 Dic 2012, 17:10

Re: Schamlos (Eddy Saller, 1968) DVDRip VOSE

Notapor kabuki71 » 24 Sep 2017, 13:30

Udo Kier & Rolf Eden!

gracias, thx & fetten Dank!
Avatar de Usuario
kabuki71
 
Mensajes: 5
Registrado: 19 Oct 2012, 22:25
Ubicación: Alemania


Volver a Largos Modernos

¿Quién está conectado?

Usuarios navegando por este Foro: Bing [Bot] y 2 invitados