Il raggio infernale (Gianfranco Baldanello, 1967) SATRip Cuatrial

Nido de espias (Doblaje Cines 1968)

Moderadores: Monsieur Lange, jotarapidup

Italia Il raggio infernale (Gianfranco Baldanello, 1967) SATRip Cuatrial

Notapor DCINE » 11 Nov 2017, 11:43

Nido de espias (AKA Il raggio infernale)
1967

Imagen
Imagen

Imagen


DIRECTOR: Gianfranco Baldanello
PRODUCTORA: Coproducción Italia-España; Leda Films Productions S.L. / Meteor Film S.r.l.
GUIÓN: Juan Antonio Cabezas, Jaime Comas Gil, Aldo Cristiani, Domenico Paolella
MÚSICA: Gianni Ferrio
FOTOGRAFÍA: Manuel Hernández Sanjuán



ARGUMENTO El profesor McCourt, descubridor del rayo Laser, reúne a un grupo de científicos para hacer una demostración de su descubrimiento y los fines de su aplicación. Su ayudante le traiciona con un grupo de malhechores que sé hacen pasar por científicos, raptando al profesor donde pretenden que trabajen para ellos y utilizar así el rayo para acciones bélicas. (FILMAFFINITY) IMDB: http://www.imdb.com/title/tt0062035/

Doblaje Cines 1968: http://www.eldoblaje.com/datos/FichaPel ... p?id=40973

Reparto: Gordon Scott, Maureen Delphy, Nello Pazzafini, Alberto Dalbés, Silvia Solar, Massimo Righi, Tullio Altamura, Rosella Bergamonti, Carlos Hurtado, Tina Di Pietro


Datos Técnicos:

Código: Seleccionar todo
General:

General
Complete name                    : 1967 Nido de Espias (AKA Il raggio infernale)(Gianfranco Baldanello, 1967) SATRip Cuatrial (Ita-Eng-Ger-Spa (Doblaje Cines 1968)) by NikKo (CG).avi
Format                           : AVI
Format/Info                      : Audio Video Interleave
File size                        : 1.24 GiB
Duration                         : 1h 29mn
Overall bit rate                 : 1 989 Kbps
Writing application              : VirtualDubMod 1.5.10.2 (build 2542/release)
Writing library                  : VirtualDubMod build 2542/release

Video
ID                               : 0
Format                           : MPEG-4 Visual
Format profile                   : Advanced Simple@L2
Format settings, BVOP            : 2
Format settings, QPel            : No
Format settings, GMC             : No warppoints
Format settings, Matrix          : Default (H.263)
Muxing mode                      : Packed bitstream
Codec ID                         : XVID
Codec ID/Hint                    : XviD
Duration                         : 1h 29mn
Bit rate                         : 1 452 Kbps
Width                            : 720 pixels
Height                           : 400 pixels
Display aspect ratio             : 16:9
Frame rate                       : 25.000 fps
Color space                      : YUV
Chroma subsampling               : 4:2:0
Bit depth                        : 8 bits
Scan type                        : Progressive
Compression mode                 : Lossy
Bits/(Pixel*Frame)               : 0.202
Stream size                      : 929 MiB (73%)
Writing library                  : XviD 1.1.2 (UTC 2006-11-01)

Audio #1
ID                               : 1
Format                           : MPEG Audio
Format version                   : Version 1
Format profile                   : Layer 3
Mode                             : Joint stereo
Mode extension                   : MS Stereo
Codec ID                         : 55
Codec ID/Hint                    : MP3
Duration                         : 1h 29mn
Bit rate mode                    : Constant
Bit rate                         : 128 Kbps
Channel(s)                       : 2 channels
Sampling rate                    : 44.1 KHz
Compression mode                 : Lossy
Stream size                      : 81.9 MiB (6%)
Alignment                        : Split accross interleaves
Interleave, duration             : 40 ms (1.00 video frame)
Interleave, preload duration     : 500 ms
Writing library                  : LAME3.97

Audio #2
ID                               : 2
Format                           : MPEG Audio
Format version                   : Version 1
Format profile                   : Layer 3
Mode                             : Joint stereo
Mode extension                   : MS Stereo
Codec ID                         : 55
Codec ID/Hint                    : MP3
Duration                         : 1h 29mn
Bit rate mode                    : Constant
Bit rate                         : 128 Kbps
Channel(s)                       : 2 channels
Sampling rate                    : 44.1 KHz
Compression mode                 : Lossy
Stream size                      : 81.9 MiB (6%)
Alignment                        : Split accross interleaves
Interleave, duration             : 40 ms (1.00 video frame)
Interleave, preload duration     : 500 ms

Audio #3
ID                               : 3
Format                           : MPEG Audio
Format version                   : Version 1
Format profile                   : Layer 3
Mode                             : Joint stereo
Mode extension                   : MS Stereo
Codec ID                         : 55
Codec ID/Hint                    : MP3
Duration                         : 1h 29mn
Bit rate mode                    : Constant
Bit rate                         : 128 Kbps
Channel(s)                       : 2 channels
Sampling rate                    : 44.1 KHz
Compression mode                 : Lossy
Stream size                      : 81.9 MiB (6%)
Alignment                        : Split accross interleaves
Interleave, duration             : 40 ms (1.00 video frame)
Interleave, preload duration     : 500 ms

Audio #4
ID                               : 4
Format                           : MPEG Audio
Format version                   : Version 1
Format profile                   : Layer 3
Mode                             : Joint stereo
Mode extension                   : MS Stereo
Codec ID                         : 55
Codec ID/Hint                    : MP3
Duration                         : 1h 29mn
Bit rate mode                    : Constant
Bit rate                         : 128 Kbps
Channel(s)                       : 2 channels
Sampling rate                    : 44.1 KHz
Compression mode                 : Lossy
Stream size                      : 81.9 MiB (6%)
Alignment                        : Split accross interleaves
Interleave, duration             : 40 ms (1.00 video frame)
Interleave, preload duration     : 500 ms






Capturas:

ImagenImagen
ImagenImagen
ImagenImagen


Enlace: (Ripeo de NikKo en CG, encontrado en emule)

eD2K link 1967 Nido de Espias (AKA Il raggio infernale)(Gianfranco Baldanello, ...(CG).avi [1.24 Gb] 
Avatar de Usuario
DCINE
 
Mensajes: 1044
Temas: 112
Registrado: 30 Jul 2016, 19:09

Re: Il raggio infernale (Gianfranco Baldanello, 1967) SATRip Cuatrial

Notapor gatatitania » 11 Nov 2017, 11:54

¡Gracias! :aplauso: :aplauso: :aplauso:
Avatar de Usuario
gatatitania
 
Mensajes: 3219
Temas: 100
Registrado: 16 Oct 2012, 17:27
Ubicación: Gatatitania es un gato hambriento, superviviente del planeta gatatitania...

Re: Il raggio infernale (Gianfranco Baldanello, 1967) SATRip Cuatrial

Notapor hdjzgz » 11 Nov 2017, 12:58

:drinks: Gracias, hacer constar, por si el audio español tuviera fallos de sincronía u otros, que procede de un transfer en Super 8 que realice hace ya bastante tiempo cuando no tenía mucha habilidad con ello, de hecho ni recordaba que la tenía montada y emulizada desde entonces. Los otros audios, que ya estaban en el montaje encontrado en su momento, son Italiano-Ingles y Aleman. :hi:
Avatar de Usuario
hdjzgz
 
Mensajes: 220
Temas: 86
Registrado: 16 Oct 2012, 18:22

Re: Il raggio infernale (Gianfranco Baldanello, 1967) SATRip Cuatrial

Notapor tuscarola » 12 Nov 2017, 07:21

Merci DCINE.
Imagen
Imagen
Imagen
Imagen
In Memoriam:
Juan Manuel Soriano
Carmen Lombarte
Maribel Casals
Felipe Peña
Alfonso Santigosa
Rafael Navarro
Avatar de Usuario
tuscarola
 
Mensajes: 1388
Temas: 16
Registrado: 25 Dic 2012, 20:38
Ubicación: En el Tarragonés

Re: Il raggio infernale (Gianfranco Baldanello, 1967) SATRip Cuatrial

Notapor sete » 12 Nov 2017, 17:15

Muchas gracias, NikKo y DCINE.
:hi:
Este mundo está traicionando a la vida.
José Luis Sampedro
Avatar de Usuario
sete
 
Mensajes: 2363
Registrado: 22 Dic 2012, 16:10

Re: Il raggio infernale (Gianfranco Baldanello, 1967) SATRip Cuatrial

Notapor yojimbo » 14 Nov 2017, 14:05

Muchas gracias, DCINE y NikKo.
Avatar de Usuario
yojimbo
 
Mensajes: 6644
Temas: 17
Registrado: 18 Oct 2012, 13:25

Re: Il raggio infernale (Gianfranco Baldanello, 1967) SATRip Cuatrial

Notapor tonapar1 » 14 Nov 2017, 19:52

Muchas gracias por el ripeo a dcine, nikko y hdzgz. Un saludo a todos ellos.
Avatar de Usuario
tonapar1
 
Mensajes: 2537
Registrado: 16 Oct 2012, 19:19


Volver a Largos Modernos

¿Quién está conectado?

Usuarios navegando por este Foro: No hay usuarios registrados visitando el Foro y 2 invitados