Horizontes de luz (León Klimovsky, 1962) DVDRip VO

Moderadores: Monsieur Lange, jotarapidup

España Horizontes de luz (León Klimovsky, 1962) DVDRip VO

Notapor DCINE » 07 Dic 2017, 11:22

Horizontes de luz
1962

Imagen



DIRECTOR: León Klimovsky
PRODUCTORA: Tyrys Films
GUIÓN: León Klimovsky, Ángel del Castillo, Víctor Redondo
MÚSICA: Gregorio García Segura
FOTOGRAFÍA: Manuel Hernández Sanjuán



ARGUMENTO Un grupo de jóvenes muchachos de diversa procedencia constituyen la nueva promoción de futuros pilotos en la Escuela de vuelo sin motor de Monflorite... Se celebra un festival aéreo. Reactores, paracaidistas y veleros acrobáticos compiten en espectacularidad. Luis, el mejor del curso, sufre un accidente al querer volar sobre un camping en el que están tres bellas señoritas... Modernos Ícaros de audaz decisión ante la aventura, de frágiles alas al viento, de tierno corazón para las mujeres, surcan el aire de la península, tejiendo un maravilloso tapiz con nuestros más bellos paisajes. (FILMAFFINITY) IMDB: http://www.imdb.com/title/tt0056080/



Reparto: Antonio Ozores, Julio Núñez, Marta Padován, Julio Riscal, Jaime Avellán, Torrebruno, Elena María Tejeiro, Jorge Martín, Ester Rivero, Antonio Sanabria, Frank Braña


Datos Técnicos:

Código: Seleccionar todo
General:

Complete name                    : 1962 Horizontes de luz (León Klimovsky, 1962) DVDRip VO by DCINE.mkv
Format                           : Matroska
Format version                   : Version 4 / Version 2
File size                        : 1.52 GiB
Duration                         : 1h 27mn
Overall bit rate                 : 2 507 Kbps
Encoded date                     : UTC 2017-07-02T11:28:28Z
Writing application              : mkvmerge v7.1.0 ('Good Love') 32bit built on Jul 27 2014 12:59:18
Writing library                  : Lavf55.12.0

Video
ID                               : 1
Format                           : AVC
Format/Info                      : Advanced Video Codec
Format profile                   : High@L4.1
Format settings, CABAC           : Yes
Format settings, ReFrames        : 4 frames
Codec ID                         : V_MPEG4/ISO/AVC
Duration                         : 1h 27mn
Bit rate                         : 2 265 Kbps
Width                            : 702 pixels
Height                           : 572 pixels
Display aspect ratio             : 4:3
Frame rate mode                  : Variable
Frame rate                       : 25.000 fps
Color space                      : YUV
Chroma subsampling               : 4:2:0
Bit depth                        : 8 bits
Scan type                        : Progressive
Bits/(Pixel*Frame)               : 0.226
Stream size                      : 1.38 GiB (90%)
Writing library                  : x264 core 142 r2479 dd79a61
Encoding settings                : cabac=1 / ref=3 / deblock=1:0:0 / analyse=0x3:0x113 / me=hex / subme=7 / psy=1 / psy_rd=1.00:0.00 / mixed_ref=1 / me_range=16 / chroma_me=1 / trellis=1 / 8x8dct=1 / cqm=0 / deadzone=21,11 / fast_pskip=1 / chroma_qp_offset=-2 / threads=1 / lookahead_threads=1 / sliced_threads=0 / nr=0 / decimate=1 / interlaced=0 / bluray_compat=0 / constrained_intra=0 / bframes=3 / b_pyramid=2 / b_adapt=1 / b_bias=0 / direct=1 / weightb=1 / open_gop=0 / weightp=2 / keyint=250 / keyint_min=25 / scenecut=40 / intra_refresh=0 / rc_lookahead=40 / rc=crf / mbtree=1 / crf=20.0 / qcomp=0.60 / qpmin=0 / qpmax=69 / qpstep=4 / vbv_maxrate=62500 / vbv_bufsize=78125 / crf_max=0.0 / nal_hrd=none / filler=0 / ip_ratio=1.40 / aq=1:1.00
Language                         : Spanish
Default                          : Yes
Forced                           : No
DURATION                         : 01:27:01.840000000
NUMBER_OF_FRAMES                 : 130546
NUMBER_OF_BYTES                  : 1510159657
_STATISTICS_WRITING_APP          : mkvmerge v7.1.0 ('Good Love') 32bit built on Jul 27 2014 12:59:18
_STATISTICS_WRITING_DATE_UTC     : 2017-07-02 16:09:36
_STATISTICS_TAGS                 : BPS DURATION NUMBER_OF_FRAMES NUMBER_OF_BYTES
Color primaries                  : BT.470-6 System B, BT.470-6 System G, BT.601-6 625, BT.1358 625, BT.1700 625 PAL, BT.1700 625 SECAM
Transfer characteristics         : BT.709-5, BT.1361
Matrix coefficients              : BT.601-6 525, BT.1358 525, BT.1700 NTSC, SMPTE 170M

Audio
ID                               : 2
Format                           : AC-3
Format/Info                      : Audio Coding 3
Mode extension                   : CM (complete main)
Codec ID                         : A_AC3
Duration                         : 1h 27mn
Bit rate mode                    : Constant
Bit rate                         : 192 Kbps
Channel(s)                       : 2 channels
Channel positions                : Front: L R
Sampling rate                    : 48.0 KHz
Bit depth                        : 16 bits
Compression mode                 : Lossy
Delay relative to video          : -80ms
Stream size                      : 120 MiB (8%)
Language                         : Spanish
Default                          : Yes
Forced                           : No
SOURCE_ID                        : 0180BD
_STATISTICS_WRITING_APP          : mkvmerge v7.1.0 ('Good Love') 32bit built on Jul 27 2014 12:59:18
_STATISTICS_WRITING_DATE_UTC     : 2017-07-02 16:09:36
_STATISTICS_TAGS                 : BPS DURATION NUMBER_OF_FRAMES NUMBER_OF_BYTES
DURATION                         : 01:27:01.856000000
NUMBER_OF_FRAMES                 : 163183
NUMBER_OF_BYTES                  : 125324544

Menu #1
00:00:00.000                     : :Chapter 1
00:06:55.360                     : :Chapter 2
00:17:31.840                     : :Chapter 3
00:27:02.080                     : :Chapter 4
00:38:47.680                     : :Chapter 5
00:56:17.920                     : :Chapter 6
01:12:21.760                     : :Chapter 7

Menu #2
00:00:00.080                     : en:Chapter 01
00:06:55.280                     : en:Chapter 02
00:17:31.760                     : en:Chapter 03
00:27:02.000                     : en:Chapter 04
00:38:47.600                     : en:Chapter 05
00:56:17.840                     : en:Chapter 06
01:12:21.680                     : en:Chapter 07






Capturas:

ImagenImagen
ImagenImagen
ImagenImagen
ImagenImagen


Enlace:

eD2K link 1962 Horizontes de luz (León Klimovsky, 1962) DVDRip VO by DCINE.mkv [1.52 Gb] 

DD: https://mega.nz/#!plw3DKSD!yrUrYF4F4DTB ... hTBSSl_EMc
Avatar de Usuario
DCINE
 
Mensajes: 1062
Temas: 115
Registrado: 30 Jul 2016, 19:09

Re: Horizontes de luz (León Klimovsky, 1962) DVDRip VO

Notapor tuscarola » 08 Dic 2017, 07:31

Muchas gracias DCINE por este filme español que no había visto. Se ve de lujo.
Imagen
Imagen
Imagen
Imagen
In Memoriam:
Juan Manuel Soriano
Carmen Lombarte
Maribel Casals
Felipe Peña
Alfonso Santigosa
Rafael Navarro
Avatar de Usuario
tuscarola
 
Mensajes: 1437
Temas: 16
Registrado: 25 Dic 2012, 20:38
Ubicación: En el Tarragonés

Re: Horizontes de luz (León Klimovsky, 1962) DVDRip VO

Notapor yojimbo » 09 Dic 2017, 22:51

Muchas gracias, DCINE.
Avatar de Usuario
yojimbo
 
Mensajes: 6716
Temas: 17
Registrado: 18 Oct 2012, 13:25


Volver a Largos Modernos

¿Quién está conectado?

Usuarios navegando por este Foro: No hay usuarios registrados visitando el Foro y 1 invitado