La gran familia (Fernando Palacios, 1962) BDRip VO

Moderadores: Monsieur Lange, jotarapidup

España La gran familia (Fernando Palacios, 1962) BDRip VO

Notapor DCINE » 25 Dic 2017, 09:24

La gran familia
1962

Imagen


DIRECTOR: Fernando Palacios
PRODUCTORA: Pedro Masó P.C
GUIÓN: Pedro Masó, Rafael J. Salvia, Antonio Vich
MÚSICA: Adolfo Waitzman
FOTOGRAFÍA: Juan Mariné



ARGUMENTO Carlos Alonso, de profesión aparejador, combina dos trabajos a la vez para poder alimentar a sus quince hijos, esposa y abuelo. No le queda otro remedio. Tener una familia numerosa es un tremendo problema a la hora de comer, vestir, ir al cine... y él es el único que aporta dinero al hogar, sin embargo lo lleva con gran jovialidad y optimismo. (FILMAFFINITY) IMDB: http://www.imdb.com/title/tt0056037/



Reparto: Alberto Closas, Amparo Soler Leal, José Isbert, José Luis López Vázquez, Paula Martel, María José Alfonso, Pedro Mari Sánchez


Datos Técnicos:

Código: Seleccionar todo
General:

Complete name                    : 1962 La gran familia (Fernando Palacios, 1962) BDRip 576p VO by DCINE.mkv
Format                           : Matroska
Format version                   : Version 4 / Version 2
File size                        : 3.44 GiB
Duration                         : 1h 43mn
Overall bit rate                 : 4 767 Kbps
Movie name                       : 1962 La gran familia (Fernando Palacios, 1962) BDRip 576p VO by DCINE.mkv
Encoded date                     : UTC 2017-12-23T14:41:33Z
Writing application              : mkvmerge v7.1.0 ('Good Love') 32bit built on Jul 27 2014 12:59:18
Writing library                  : Lavf55.12.0
DURATION                         : 01:43:21.024000000
NUMBER_OF_FRAMES                 : 258376
NUMBER_OF_BYTES                  : 148824576
_STATISTICS_WRITING_APP          : mkvmerge v7.1.0 ('Good Love') 32bit built on Jul 27 2014 12:59:18
_STATISTICS_WRITING_DATE_UTC     : 2017-12-24 12:02:52
_STATISTICS_TAGS                 : BPS DURATION NUMBER_OF_FRAMES NUMBER_OF_BYTES

Video
ID                               : 1
Format                           : AVC
Format/Info                      : Advanced Video Codec
Format profile                   : High@L4.1
Format settings, CABAC           : Yes
Format settings, ReFrames        : 5 frames
Codec ID                         : V_MPEG4/ISO/AVC
Duration                         : 1h 43mn
Bit rate                         : 4 480 Kbps
Width                            : 1 024 pixels
Height                           : 576 pixels
Display aspect ratio             : 16:9
Frame rate mode                  : Variable
Frame rate                       : 24.000 fps
Color space                      : YUV
Chroma subsampling               : 4:2:0
Bit depth                        : 8 bits
Scan type                        : Progressive
Bits/(Pixel*Frame)               : 0.316
Stream size                      : 3.23 GiB (94%)
Writing library                  : x264 core 142 r2479 dd79a61
Encoding settings                : cabac=1 / ref=5 / deblock=1:0:0 / analyse=0x3:0x113 / me=umh / subme=8 / psy=1 / psy_rd=1.00:0.00 / mixed_ref=1 / me_range=16 / chroma_me=1 / trellis=1 / 8x8dct=1 / cqm=0 / deadzone=21,11 / fast_pskip=1 / chroma_qp_offset=-2 / threads=1 / lookahead_threads=1 / sliced_threads=0 / nr=0 / decimate=1 / interlaced=0 / bluray_compat=0 / constrained_intra=0 / bframes=3 / b_pyramid=2 / b_adapt=2 / b_bias=0 / direct=3 / weightb=1 / open_gop=0 / weightp=2 / keyint=240 / keyint_min=24 / scenecut=40 / intra_refresh=0 / rc_lookahead=50 / rc=crf / mbtree=1 / crf=19.0 / qcomp=0.60 / qpmin=0 / qpmax=69 / qpstep=4 / vbv_maxrate=62500 / vbv_bufsize=78125 / crf_max=0.0 / nal_hrd=none / filler=0 / ip_ratio=1.40 / aq=1:1.00
Default                          : Yes
Forced                           : No
DURATION                         : 01:43:21.542000000
NUMBER_OF_FRAMES                 : 148837
NUMBER_OF_BYTES                  : 3544823241
_STATISTICS_WRITING_APP          : mkvmerge v7.1.0 ('Good Love') 32bit built on Jul 27 2014 12:59:18
_STATISTICS_WRITING_DATE_UTC     : 2017-12-24 12:02:52
_STATISTICS_TAGS                 : BPS DURATION NUMBER_OF_FRAMES NUMBER_OF_BYTES
Color primaries                  : BT.709-5, BT.1361, IEC 61966-2-4, SMPTE RP177
Transfer characteristics         : BT.709-5, BT.1361
Matrix coefficients              : BT.709-5, BT.1361, IEC 61966-2-4 709, SMPTE RP177

Audio
ID                               : 2
Format                           : MPEG Audio
Format version                   : Version 1
Format profile                   : Layer 2
Codec ID                         : A_MPEG/L2
Codec ID/Hint                    : MP2
Duration                         : 1h 43mn
Bit rate mode                    : Constant
Bit rate                         : 192 Kbps
Channel(s)                       : 2 channels
Sampling rate                    : 48.0 KHz
Compression mode                 : Lossy
Delay relative to video          : -83ms
Stream size                      : 142 MiB (4%)
Language                         : Spanish
Default                          : Yes
Forced                           : No

Menu #1
00:00:00.000                     : :Chapter 1
00:09:41.666                     : :Chapter 2
00:19:52.500                     : :Chapter 3
00:28:54.125                     : :Chapter 4
00:39:53.000                     : :Chapter 5
00:46:03.750                     : :Chapter 6
00:58:18.625                     : :Chapter 7
01:11:05.416                     : :Chapter 8
01:21:28.875                     : :Chapter 9
01:30:38.250                     : :Chapter 10
01:43:12.958                     : :Chapter 11

Menu #2
00:00:00.000                     : en:Chapter 01
00:09:41.458                     : en:Chapter 02
00:19:52.333                     : en:Chapter 03
00:28:54.041                     : en:Chapter 04
00:39:52.916                     : en:Chapter 05
00:46:03.666                     : en:Chapter 06
00:58:18.541                     : en:Chapter 07
01:11:05.208                     : en:Chapter 08
01:21:28.791                     : en:Chapter 09
01:30:38.166                     : en:Chapter 10
01:43:12.875                     : en:Chapter 11




Capturas:

ImagenImagen
ImagenImagen
ImagenImagen
ImagenImagen
ImagenImagen


Enlace:

eD2K link 1962 La gran familia (Fernando Palacios, 1962) BDRip 576p VO by DCINE.mkv [3.44 Gb] 

DD: https://mega.nz/#!A5xlVJ5T!0g0lesmSB6En ... xtBEw_Z_YA
Avatar de Usuario
DCINE
 
Mensajes: 1112
Temas: 126
Registrado: 30 Jul 2016, 18:09

Re: La gran familia (Fernando Palacios, 1962) BDRip VO

Notapor gatatitania » 25 Dic 2017, 13:05

¡Gracias! :aplauso: :aplauso: :aplauso:
Avatar de Usuario
gatatitania
 
Mensajes: 3322
Temas: 102
Registrado: 16 Oct 2012, 16:27
Ubicación: Gatatitania es un gato hambriento, superviviente del planeta gatatitania...

Re: La gran familia (Fernando Palacios, 1962) BDRip VO

Notapor epfluger » 25 Dic 2017, 18:04

Muchas gracias.
Avatar de Usuario
epfluger
 
Mensajes: 61
Registrado: 27 Abr 2016, 10:09

Re: La gran familia (Fernando Palacios, 1962) BDRip VO

Notapor tuscarola » 25 Dic 2017, 18:38

Muchas gracias DCINE. Película siempre asociada a estas fechas navideñas.
Imagen
Imagen
Imagen
Imagen
In Memoriam:
Juan Manuel Soriano
Carmen Lombarte
Maribel Casals
Felipe Peña
Alfonso Santigosa
Rafael Navarro
Avatar de Usuario
tuscarola
 
Mensajes: 1478
Temas: 17
Registrado: 25 Dic 2012, 19:38
Ubicación: En el Tarragonés

Re: La gran familia (Fernando Palacios, 1962) BDRip VO

Notapor yojimbo » 25 Dic 2017, 19:50

Mira que es famosa esta película, pero no la he visto.

Muchas gracias, DCINE.
Avatar de Usuario
yojimbo
 
Mensajes: 6796
Temas: 17
Registrado: 18 Oct 2012, 12:25

Re: La gran familia (Fernando Palacios, 1962) BDRip VO

Notapor rrreeevvv » 25 Dic 2017, 22:31

Muchas gracias.
rrreeevvv
 
Mensajes: 180
Temas: 9
Registrado: 12 Ene 2013, 23:45

Re: La gran familia (Fernando Palacios, 1962) BDRip VO

Notapor jail » 26 Dic 2017, 01:45

Gracias, DCINE.
jail
 
Mensajes: 4159
Temas: 6
Registrado: 18 Oct 2012, 13:34

Re: La gran familia (Fernando Palacios, 1962) BDRip VO

Notapor rdeespana » 26 Dic 2017, 12:30

El enfoque ideológico me produce urticaria, pero hay que admitir que la película supo hacer "entrañable" el zeitgeist del desarrollismo franquista (probablemente más por el guion y los actores que por méritos del acomodaticio Palacios, pero es solo una opinión)
rdeespana
 
Mensajes: 312
Registrado: 06 Dic 2012, 02:30

Re: La gran familia (Fernando Palacios, 1962) BDRip VO

Notapor sete » 26 Dic 2017, 20:20

Muchas gracias, DCINE.
:hi:
Este mundo está traicionando a la vida.
José Luis Sampedro
Avatar de Usuario
sete
 
Mensajes: 2502
Registrado: 22 Dic 2012, 15:10

Re: La gran familia (Fernando Palacios, 1962) BDRip VO

Notapor Monsieur Lange » 27 Dic 2017, 10:33

Muchas grcias DCINE. :hi:
"¡De buena nos hemos librado! ¡Nada menos que el señorito salamanquino!

Francisco Camacho (1936). "El cura de aldea"
Avatar de Usuario
Monsieur Lange
 
Mensajes: 2967
Temas: 73
Registrado: 13 Sep 2012, 17:39
Ubicación: Cruzando las dunas

Siguiente

Volver a Largos Modernos

¿Quién está conectado?

Usuarios navegando por este Foro: No hay usuarios registrados visitando el Foro y 1 invitado