My Side of the Mountain (James B. Clark, 1969) DVDRip Dual

El muchacho y su montaña (Doblaje Cines 1970)

Moderadores: Monsieur Lange, jotarapidup

Estados Unidos My Side of the Mountain (James B. Clark, 1969) DVDRip Dual

Notapor DCINE » 28 Dic 2017, 17:21

El muchacho y su montaña (My Side of the Mountain)
1969

Imagen

Imagen


DIRECTOR: James B. Clark
PRODUCTORA: Paramount Pictures
GUIÓN: Joanna Crawford, Jane Klove, Ted Sherdeman (Novela: Jean George)
MÚSICA: Wilfred Josephs
FOTOGRAFÍA: Denys N. Coop



ARGUMENTO Sam, un niño brillante, sale de casa por la montaña después de haber dicho que el viaje de verano de la familia ha sido cancelada, lo que le impide hacer los experimentos de algas que había planeado para el verano. (FILMAFFINITY) IMDB: http://www.imdb.com/title/tt0064708/

Doblaje Cines 1970: http://www.eldoblaje.com/datos/FichaPel ... p?id=43464

Reparto: Ted Eccles, Theodore Bikel, Tudi Wiggins, Paul Hébert, Cosette Lee, Ralph Endersby, George Allan, Dan McIlravey, Frank Perry


Datos Técnicos:

Gorgin en exploradores escribió:Montaje propio, gracias a un DVDRip compartido por adamovna (muchas gracias) al que hemos sincronizado un audio castellano capturado por nosotros mismos de una reciente emisión de TV. Compartida activamente en emule por Exploradoresp2p.com.


Código: Seleccionar todo
General:

General
Complete name                    : 1969 El muchacho y su montaña (My side of de mountain) (James B. Clark, 1969) DVDRip Dual (Spa (Doblaje Cines 1970)-Eng) by Gorgin (exploradoresp2p).avi
Format                           : AVI
Format/Info                      : Audio Video Interleave
File size                        : 1.59 GiB
Duration                         : 1h 40mn
Overall bit rate mode            : Variable
Overall bit rate                 : 2 269 Kbps
Writing application              : VirtualDubMod 1.5.10.2 (build 2540/release)
Writing library                  : VirtualDubMod build 2540/release

Video
ID                               : 0
Format                           : MPEG-4 Visual
Format settings, BVOP            : 1
Format settings, QPel            : No
Format settings, GMC             : No warppoints
Format settings, Matrix          : Default (H.263)
Muxing mode                      : Packed bitstream
Codec ID                         : DX50
Codec ID/Hint                    : DivX 5
Duration                         : 1h 40mn
Bit rate                         : 1 899 Kbps
Width                            : 720 pixels
Height                           : 304 pixels
Display aspect ratio             : 2.35:1
Frame rate                       : 23.976 fps
Color space                      : YUV
Chroma subsampling               : 4:2:0
Bit depth                        : 8 bits
Scan type                        : Progressive
Compression mode                 : Lossy
Bits/(Pixel*Frame)               : 0.362
Stream size                      : 1.33 GiB (84%)
Writing library                  : DivX 6.8.2 (UTC 2008-05-17)

Audio #1
ID                               : 1
Format                           : MPEG Audio
Format version                   : Version 1
Format profile                   : Layer 3
Codec ID                         : 55
Codec ID/Hint                    : MP3
Duration                         : 1h 40mn
Bit rate mode                    : Constant
Bit rate                         : 192 Kbps
Channel(s)                       : 2 channels
Sampling rate                    : 48.0 KHz
Compression mode                 : Lossy
Stream size                      : 138 MiB (8%)
Alignment                        : Aligned on interleaves
Interleave, duration             : 42 ms (1.00 video frame)
Interleave, preload duration     : 504 ms
Writing library                  : LAME3.98r
Encoding settings                : -m s -V 4 -q 3 -lowpass 18.6 -b 192

Audio #2
ID                               : 2
Format                           : MPEG Audio
Format version                   : Version 1
Format profile                   : Layer 3
Mode                             : Joint stereo
Mode extension                   : MS Stereo
Codec ID                         : 55
Codec ID/Hint                    : MP3
Duration                         : 1h 40mn
Bit rate mode                    : Variable
Bit rate                         : 160 Kbps
Channel(s)                       : 2 channels
Sampling rate                    : 48.0 KHz
Compression mode                 : Lossy
Stream size                      : 115 MiB (7%)
Alignment                        : Aligned on interleaves
Interleave, duration             : 24 ms (0.58 video frame)
Interleave, preload duration     : 484 ms
Writing library                  : LAME3.98




Capturas:

ImagenImagen
ImagenImagen
ImagenImagen
ImagenImagen
ImagenImagen


Enlace: (Ripeo de Gorgin en Exploradoresp2p, muchas gracias)

eD2K link 1969 El muchacho y su montaña (My side of de mountain) (James B. Cla...oresp2p).avi [1.59 Gb] 
Última edición por DCINE el 28 Dic 2017, 17:45, editado 1 vez en total
Avatar de Usuario
DCINE
 
Mensajes: 1112
Temas: 126
Registrado: 30 Jul 2016, 18:09

Re: My side of de mountain (James B. Clark, 1969) DVDRip Dual

Notapor DCINE » 28 Dic 2017, 17:22

El canal de TV de donde procede el doblaje es "Paramount channel", han hecho muy bien en recuperar este doblaje
Última edición por DCINE el 28 Dic 2017, 17:35, editado 1 vez en total
Avatar de Usuario
DCINE
 
Mensajes: 1112
Temas: 126
Registrado: 30 Jul 2016, 18:09

Re: My side of de mountain (James B. Clark, 1969) DVDRip Dual

Notapor jail » 28 Dic 2017, 17:25

Gracias, DCINE y Gorgin.
jail
 
Mensajes: 4160
Temas: 6
Registrado: 18 Oct 2012, 13:34

Re: My side of de mountain (James B. Clark, 1969) DVDRip Dual

Notapor Prudencio » 28 Dic 2017, 19:20

Muchas gracias, DCINE y Gorgin. :hi:
Avatar de Usuario
Prudencio
 
Mensajes: 3049
Temas: 5
Registrado: 16 Oct 2012, 16:46

Re: My Side of the Mountain (James B. Clark, 1969) DVDRip Dual

Notapor yojimbo » 01 Ene 2018, 22:13

Muchas gracias, DCINE y Gorgin.
Avatar de Usuario
yojimbo
 
Mensajes: 6796
Temas: 17
Registrado: 18 Oct 2012, 12:25

Re: My Side of the Mountain (James B. Clark, 1969) DVDRip Dual

Notapor gatatitania » 01 Ene 2018, 23:10

¡Gracias a los dos! :aplauso: :aplauso: :aplauso:
Avatar de Usuario
gatatitania
 
Mensajes: 3322
Temas: 102
Registrado: 16 Oct 2012, 16:27
Ubicación: Gatatitania es un gato hambriento, superviviente del planeta gatatitania...


Volver a Largos Modernos

¿Quién está conectado?

Usuarios navegando por este Foro: No hay usuarios registrados visitando el Foro y 1 invitado