Los desesperados (Julio Buchs, 1969) SATRip VE

Quei disperati che puzzano de suore e di morte (Doblaje Cines 1969)

Moderadores: Monsieur Lange, jotarapidup

España Los desesperados (Julio Buchs, 1969) SATRip VE

Notapor DCINE » 12 Ene 2018, 17:02

Los desesperados (Quei disperati che puzzano de suore e di morte)
1969

Imagen


DIRECTOR: Julio Buchs
PRODUCTORA: Coproducción Espáña-Italia; Atlántida Films / Daiano Film /Leone Film
GUIÓN: Julio Buchs, Federico De Urrutia, Ugo Guerra, José Luis Martínez Mollá
MÚSICA: Gianni Ferrio
FOTOGRAFÍA: Francisco Sempere



ARGUMENTO En plena Guerra de Secesión (1861-1865), John Warner, un noble y valiente cabo confederado, decide desertar al enterarse de que su amante va a dar a luz. Pero cuando llega al pueblo se entera de que ha muerto víctima de una epidemia de cólera. El padre de ella, un rico terrateniente mexicano, que nunca aprobó la relación, le entrega el niño que acaba muriendo de hambre por la falta de auxilio de los vecinos. A partir de entonces, John se convertirá en un violento forajido. (FILMAFFINITY) IMDB: http://www.imdb.com/title/tt0064226/

Doblaje Cines 1969: http://www.eldoblaje.com/datos/FichaPel ... p?id=23142

Reparto: Ernest Borgnine, George Hilton, Annabella Incontrera, Alberto de Mendoza, Leo Anchóriz, Gustavo Rojo, Manuel de Blas, Manuel Miranda, José Manuel Martín, Antonio Pica, George Rigaud


Datos Técnicos:

Código: Seleccionar todo
General:

Complete name                    : 1969 Los desesperados (AKA Quei disperati che puzzano de suore e di morte)(Julio Buchs, 1969) SATRip VE (Doblaje Cines 1969) RTVE by DCINE.mkv
Format                           : Matroska
Format version                   : Version 4 / Version 2
File size                        : 1.61 GiB
Duration                         : 1h 40mn
Overall bit rate                 : 2 291 Kbps
Movie name                       : 1969 Los desesperados/Quei disperati che puzzano de suore e di morte (Julio Buchs, 1969) SATRip VE (Doblaje Cines 1969) RTVE by DCINE.mkv
Encoded date                     : UTC 2017-10-11T16:25:55Z
Writing application              : mkvmerge v7.1.0 ('Good Love') 32bit built on Jul 27 2014 12:59:18
Writing library                  : Lavf54.63.104

Video
ID                               : 1
Format                           : AVC
Format/Info                      : Advanced Video Codec
Format profile                   : High@L4.1
Format settings, CABAC           : Yes
Format settings, ReFrames        : 4 frames
Codec ID                         : V_MPEG4/ISO/AVC
Duration                         : 1h 40mn
Bit rate                         : 2 054 Kbps
Width                            : 720 pixels
Height                           : 472 pixels
Display aspect ratio             : 2.2:1
Frame rate mode                  : Variable
Frame rate                       : 25.000 fps
Color space                      : YUV
Chroma subsampling               : 4:2:0
Bit depth                        : 8 bits
Scan type                        : Progressive
Bits/(Pixel*Frame)               : 0.242
Stream size                      : 1.44 GiB (90%)
Writing library                  : x264 core 142 r2479 dd79a61
Encoding settings                : cabac=1 / ref=3 / deblock=1:0:0 / analyse=0x3:0x113 / me=hex / subme=7 / psy=1 / psy_rd=1.00:0.00 / mixed_ref=1 / me_range=16 / chroma_me=1 / trellis=1 / 8x8dct=1 / cqm=0 / deadzone=21,11 / fast_pskip=1 / chroma_qp_offset=-2 / threads=1 / lookahead_threads=1 / sliced_threads=0 / nr=0 / decimate=1 / interlaced=0 / bluray_compat=0 / constrained_intra=0 / bframes=3 / b_pyramid=2 / b_adapt=1 / b_bias=0 / direct=1 / weightb=1 / open_gop=0 / weightp=2 / keyint=250 / keyint_min=25 / scenecut=40 / intra_refresh=0 / rc_lookahead=40 / rc=crf / mbtree=1 / crf=20.0 / qcomp=0.60 / qpmin=0 / qpmax=69 / qpstep=4 / vbv_maxrate=62500 / vbv_bufsize=78125 / crf_max=0.0 / nal_hrd=none / filler=0 / ip_ratio=1.40 / aq=1:1.00
Default                          : Yes
Forced                           : No
DURATION                         : 01:40:37.320000000
NUMBER_OF_FRAMES                 : 150933
NUMBER_OF_BYTES                  : 1583022887
_STATISTICS_WRITING_APP          : mkvmerge v7.1.0 ('Good Love') 32bit built on Jul 27 2014 12:59:18
_STATISTICS_WRITING_DATE_UTC     : 2017-10-11 21:48:34
_STATISTICS_TAGS                 : BPS DURATION NUMBER_OF_FRAMES NUMBER_OF_BYTES
Color primaries                  : BT.470-6 System B, BT.470-6 System G, BT.601-6 625, BT.1358 625, BT.1700 625 PAL, BT.1700 625 SECAM
Transfer characteristics         : BT.709-5, BT.1361
Matrix coefficients              : BT.601-6 525, BT.1358 525, BT.1700 NTSC, SMPTE 170M

Audio
ID                               : 2
Format                           : MPEG Audio
Format version                   : Version 1
Format profile                   : Layer 2
Codec ID                         : A_MPEG/L2
Codec ID/Hint                    : MP2
Duration                         : 1h 40mn
Bit rate mode                    : Constant
Bit rate                         : 192 Kbps
Channel(s)                       : 2 channels
Sampling rate                    : 48.0 KHz
Compression mode                 : Lossy
Delay relative to video          : -79ms
Stream size                      : 138 MiB (8%)
Title                            : Doblaje Cines 1969
Language                         : Spanish
Default                          : Yes
Forced                           : No
DURATION                         : 01:40:37.449000000
NUMBER_OF_FRAMES                 : 251601
NUMBER_OF_BYTES                  : 144922176
_STATISTICS_WRITING_APP          : mkvmerge v7.1.0 ('Good Love') 32bit built on Jul 27 2014 12:59:18
_STATISTICS_WRITING_DATE_UTC     : 2017-10-11 21:48:34
_STATISTICS_TAGS                 : BPS DURATION NUMBER_OF_FRAMES NUMBER_OF_BYTES





Capturas:

ImagenImagen
ImagenImagen
ImagenImagen


Enlace:

eD2K link 1969 Los desesperados (AKA Quei disperati che puzzano de suore e di morte)...TVE by DCINE.mkv [1.61 Gb] 

DD: https://mega.nz/#!FwB0UAia!3zS0cxDKaITc ... E1fjczB168
Avatar de Usuario
DCINE
 
Mensajes: 1110
Temas: 126
Registrado: 30 Jul 2016, 18:09

Re: Los desesperados (Julio Buchs, 1969) SATRip VE

Notapor gatatitania » 12 Ene 2018, 18:16

¡Gracias, DCINE! :aplauso: :aplauso: :aplauso:
Avatar de Usuario
gatatitania
 
Mensajes: 3319
Temas: 102
Registrado: 16 Oct 2012, 16:27
Ubicación: Gatatitania es un gato hambriento, superviviente del planeta gatatitania...

Re: Los desesperados (Julio Buchs, 1969) SATRip VE

Notapor sete » 12 Ene 2018, 22:12

Muchas gracias, DCINE.
:hi:
Este mundo está traicionando a la vida.
José Luis Sampedro
Avatar de Usuario
sete
 
Mensajes: 2502
Registrado: 22 Dic 2012, 15:10

Re: Los desesperados (Julio Buchs, 1969) SATRip VE

Notapor miguel_HammerFilms » 13 Ene 2018, 19:30

Muy buen spaghetti, gracias DCINE :genial:
Imagen Nosferatu de Plata, temporada 2011-2012
Avatar de Usuario
miguel_HammerFilms
 
Mensajes: 359
Temas: 42
Registrado: 16 Oct 2012, 16:23

Re: Los desesperados (Julio Buchs, 1969) SATRip VE

Notapor yojimbo » 14 Ene 2018, 11:03

Muchas gracias, DCINE.
Avatar de Usuario
yojimbo
 
Mensajes: 6795
Temas: 17
Registrado: 18 Oct 2012, 12:25

Re: Los desesperados (Julio Buchs, 1969) SATRip VE

Notapor Prudencio » 14 Ene 2018, 12:39

Muchas gracias, DCINE. :hi:
Avatar de Usuario
Prudencio
 
Mensajes: 3045
Temas: 5
Registrado: 16 Oct 2012, 16:46


Volver a Largos Modernos

¿Quién está conectado?

Usuarios navegando por este Foro: No hay usuarios registrados visitando el Foro y 1 invitado