Página 1 de 1

Daddy Nostalgie (Bertrand Tavernier, 1990) DVDRip VOSE

NotaPublicado: 12 Ene 2018, 20:05
por felipemarlou
Ripeo encontrado en la mula.

Imagen

Daddy Nostalgie (1990)


Dirección: Bertrand Tavernier

Guión: Colo Tavernier O'Hagan

Música: Antoine Duhamel

Fotografía: Denis Lenoir

Duración:103 min

País: Francia

Género: Drama


Reparto:

Dirk Bogarde, Jane Birkin, Odette Laure, Emmanuelle Bataille, Charlotte Kady, Michele Minns, Sophie Dalezio, Sylvie Segalas, Hélène Lefumat, Andrée Duranson, Raymond Defendente


Sinopsis:

Desgarradora crónica sobre la institución familiar: una joven parisina va a un pequeño pueblo de la Costa Azul para acompañar a su padre, que se está recuperando de una operación quirúrgica. Tavernier consiguió que Bogarde volviera al cine después de un retiro de once años. (FILMAFFINITY)


Capturas:


Imagen
Imagen
Imagen
Imagen
Imagen



Datos técnicos:

Spoiler:
General
Complete name : 0 Daddy Nostalgie (1990) Tavernier, Bertrand En+Fr [rodriguezalvarez.com].avi
Format : AVI
Format/Info : Audio Video Interleave
File size : 995 MiB
Duration : 1h 42mn
Overall bit rate : 1 361 Kbps
Writing application : FairUse Wizard - http://fairusewizard.com
Writing library : The best and REALLY easy backup tool

Video
ID : 0
Format : MPEG-4 Visual
Format profile : Advanced Simple@L5
Format settings, BVOP : 1
Format settings, QPel : No
Format settings, GMC : No warppoints
Format settings, Matrix : Default (MPEG)
Muxing mode : Packed bitstream
Codec ID : XVID
Codec ID/Hint : XviD
Duration : 1h 42mn
Bit rate : 1 159 Kbps
Width : 704 pixels
Height : 296 pixels
Display aspect ratio : 2.40:1
Frame rate : 25.000 fps
Color space : YUV
Chroma subsampling : 4:2:0
Bit depth : 8 bits
Scan type : Progressive
Compression mode : Lossy
Bits/(Pixel*Frame) : 0.223
Stream size : 847 MiB (85%)
Writing library : XviD 1.2.1 (UTC 2008-12-04)

Audio
ID : 1
Format : MPEG Audio
Format version : Version 1
Format profile : Layer 3
Mode : Joint stereo
Mode extension : MS Stereo
Codec ID : 55
Codec ID/Hint : MP3
Duration : 1h 42mn
Bit rate mode : Constant
Bit rate : 192 Kbps
Channel(s) : 2 channels
Sampling rate : 48.0 KHz
Compression mode : Lossy
Stream size : 140 MiB (14%)
Alignment : Aligned on interleaves
Interleave, duration : 40 ms (1.00 video frame)
Interleave, preload duration : 504 ms
Writing library : LAME3.97
Encoding settings : -m j -V 4 -q 2 -lowpass 18.6 -b 192



Imagen



Enlace a la mula:

eD2K link 0 Daddy Nostalgie (1990) Tavernier, Bertrand En+Fr [rodriguezalvarez.com].avi [994.76 Mb] 


Subtítulos en español en descarga directa:

https://www.subdivx.com/X6XNTI0MTI3X-da ... -1990.html

Re: Daddy Nostalgie (Bertrand Tavernier, 1990) DVDRip VOSE

NotaPublicado: 12 Ene 2018, 20:51
por jail
Gracias, felipe.

Re: Daddy Nostalgie (Bertrand Tavernier, 1990) DVDRip VOSE

NotaPublicado: 12 Ene 2018, 22:10
por sete
Muchas gracias, felipemarlou.
:hi:

Re: Daddy Nostalgie (Bertrand Tavernier, 1990) DVDRip VOSE

NotaPublicado: 12 Ene 2018, 23:37
por gatatitania
¡Gracias, Felipe! :aplauso: :aplauso: :aplauso:

Re: Daddy Nostalgie (Bertrand Tavernier, 1990) DVDRip VOSE

NotaPublicado: 13 Ene 2018, 01:32
por Prudencio
Muchas gracias, Felipe. :hi:

Re: Daddy Nostalgie (Bertrand Tavernier, 1990) DVDRip VOSE

NotaPublicado: 13 Ene 2018, 07:32
por cagney
Esta de Tavernier no he vuelto a verla desde su estreno y andaba detrás de ella... Aprovechará ahora, gracias.

Re: Daddy Nostalgie (Bertrand Tavernier, 1990) DVDRip VOSE

NotaPublicado: 14 Ene 2018, 11:04
por yojimbo
Muchas gracias, felipemarlou.