California Suite (Herbert Ross, 1978) WEBRip 720p Dual SE

California Suite

Moderador: loperena

Reglas del Foro
No se admiten publicaciones de películas cuya fecha de producción sea inferior a tres años completos. Norma de los tres años.

Estados Unidos California Suite (Herbert Ross, 1978) WEBRip 720p Dual SE

Notapor DMMD » 13 Nov 2017, 00:23

California Suite

(Herbert Ross, 1978)


Imagen


Imagen


California Suite


Título original California Suite
Año 1978
Duración 103 min.
País Imagen
Director Herbert Ross
Guion Neil Simon (Teatro: Neil Simon)
Música Claude Bolling
Fotografía David M. Walsh
Reparto
Alan Alda, Jane Fonda, Maggie Smith, Michael Caine, Walter Matthau, Richard Pryor, Bill Cosby, Elaine May, James Coburn

Productora Rastar. Distribuida por Columbia Pictures
Género Comedia. Drama | Comedia dramática. Comedia romántica. Historias cruzadas
Sinopsis Cinco parejas que han ido a Los Ángeles por diversos motivos se alojan en un famoso hotel, en el que vivirán curiosas experiencias. (FILMAFFINITY)
Premios
1978: Oscar: Mejor actriz secundaria (Maggie Smith). 3 nominaciones
1978: Globos de Oro: Mejor actriz musical/comedia (Maggie Smith). 2 nominaciones
1978: Círculo de Críticos de Nueva York: Nominada a Mejor actriz secundaria (Smith)
1979: Premios BAFTA: Nominada a Mejor actriz (Maggie Smith)
1978: Sindicato de Guionistas (WGA): Nominada a Mejor guión adaptado comedia

Críticas
Cuatro historias chequean en el hotel de la cruda realidad, pura vida según Neil Simon, agridulce hasta en la soleada California. El humor de la obra del prolífico autor, que adapta su propio éxito teatral, cambia de registro según pasa de una historia a otra. El relato de Fonda-Alda; brillantísimo y mordaz. El de Smith-Caine; tan cínico como conmovedor. Matthau-May despliegan su talento en una divertida screwball, acabando en la floja parodia de Pryor-Cosby. Eso sí, pocas veces un reparto estuvo tan ajustado.
Pablo Kurt: FILMAFFINITY
"Comedia dramática, entre melancólica y lírica, con un humor que se hace compatible con el sentimiento."
Francisco Marinero: Diario El Mundo
"Atractiva comedia. Ross se rodeó de un reparto con garantías"
Fernando Morales: Diario El País


Código: Seleccionar todo
General
Unique ID                                : 210800541254507828917057873188674617253 (0x9E96B51CB8C5911EA7D8F253B6AC3FA5)
Complete name                            : D:\Incoming\1978-California.Suite.WEBRip.720p.AC3[DMMD].mkv
Format                                   : Matroska
Format version                           : Version 4 / Version 2
File size                                : 4.05 GiB
Duration                                 : 1 h 42 min
Overall bit rate                         : 5 653 kb/s
Movie name                               : 1978-California.Suite.WEBRip.720p.AC3[DMMD].
Encoded date                             : UTC 2017-11-12 23:17:19
Writing application                      : mkvmerge v17.0.0 ('Be Ur Friend') 64-bit
Writing library                          : libebml v1.3.5 + libmatroska v1.4.8
Attachments                              : 1

Video
ID                                       : 1
Format                                   : AVC
Format/Info                              : Advanced Video Codec
Format profile                           : High@L4.1
Format settings                          : CABAC / 9 Ref Frames
Format settings, CABAC                   : Yes
Format settings, RefFrames               : 9 frames
Codec ID                                 : V_MPEG4/ISO/AVC
Duration                                 : 1 h 42 min
Bit rate                                 : 5 237 kb/s
Width                                    : 1 280 pixels
Height                                   : 720 pixels
Display aspect ratio                     : 16:9
Frame rate mode                          : Constant
Frame rate                               : 23.976 (24000/1001) FPS
Color space                              : YUV
Chroma subsampling                       : 4:2:0
Bit depth                                : 8 bits
Scan type                                : Progressive
Bits/(Pixel*Frame)                       : 0.237
Stream size                              : 3.75 GiB (93%)
Title                                    : WEBRip.720p
Writing library                          : x264 core 152 r2851kMod ba24899
Encoding settings                        : cabac=1 / ref=9 / deblock=1:-3:-3 / analyse=0x3:0x133 / me=umh / subme=11 / psy=1 / fade_compensate=0.00 / psy_rd=1.00:0.00 / mixed_ref=1 / me_range=24 / chroma_me=1 / trellis=2 / 8x8dct=1 / cqm=0 / deadzone=21,11 / fast_pskip=0 / chroma_qp_offset=-2 / threads=6 / lookahead_threads=1 / sliced_threads=0 / nr=0 / decimate=0 / interlaced=0 / bluray_compat=0 / constrained_intra=0 / bframes=9 / b_pyramid=2 / b_adapt=2 / b_bias=0 / direct=3 / weightb=1 / open_gop=0 / weightp=2 / keyint=250 / keyint_min=23 / scenecut=40 / intra_refresh=0 / rc=crf / mbtree=0 / crf=19.5000 / qcomp=0.60 / qpmin=0 / qpmax=69 / qpstep=4 / ip_ratio=1.40 / pb_ratio=1.30 / aq=3:0.55
Language                                 : English
Default                                  : Yes
Forced                                   : No

Audio #1
ID                                       : 2
Format                                   : E-AC-3
Format/Info                              : Enhanced Audio Coding 3
Codec ID                                 : A_EAC3
Duration                                 : 1 h 42 min
Bit rate mode                            : Constant
Bit rate                                 : 224 kb/s
Channel(s)                               : 2 channels
Channel positions                        : Front: L R
Sampling rate                            : 48.0 kHz
Frame rate                               : 187.500 FPS (256 SPF)
Compression mode                         : Lossy
Stream size                              : 164 MiB (4%)
Language                                 : English
Service kind                             : Complete Main
Default                                  : Yes
Forced                                   : No

Audio #2
ID                                       : 3
Format                                   : AC-3
Format/Info                              : Audio Coding 3
Codec ID                                 : A_AC3
Duration                                 : 1 h 42 min
Bit rate mode                            : Constant
Bit rate                                 : 192 kb/s
Channel(s)                               : 2 channels
Channel positions                        : Front: L R
Sampling rate                            : 48.0 kHz
Frame rate                               : 31.250 FPS (1536 SPF)
Bit depth                                : 16 bits
Compression mode                         : Lossy
Stream size                              : 141 MiB (3%)
Language                                 : Spanish
Service kind                             : Complete Main
Default                                  : No
Forced                                   : No

Text #1
ID                                       : 4
Format                                   : UTF-8
Codec ID                                 : S_TEXT/UTF8
Codec ID/Info                            : UTF-8 Plain Text
Duration                                 : 1 h 38 min
Bit rate                                 : 85 b/s
Count of elements                        : 1575
Stream size                              : 61.4 KiB (0%)
Language                                 : Spanish
Default                                  : Yes
Forced                                   : No

Text #2
ID                                       : 5
Format                                   : UTF-8
Codec ID                                 : S_TEXT/UTF8
Codec ID/Info                            : UTF-8 Plain Text
Duration                                 : 1 h 38 min
Bit rate                                 : 91 b/s
Count of elements                        : 1755
Stream size                              : 65.9 KiB (0%)
Language                                 : English
Default                                  : No
Forced                                   : No

Menu
00:00:00.000                             : en:Chapter 1
00:02:22.667                             : en:Chapter 2
00:05:05.034                             : en:Chapter 3
00:08:17.734                             : en:Chapter 4
00:15:37.401                             : en:Chapter 5
00:19:18.567                             : en:Chapter 6
00:20:52.067                             : en:Chapter 7
00:27:35.901                             : en:Chapter 8
00:30:40.768                             : en:Chapter 9
00:40:47.568                             : en:Chapter 10
00:43:22.035                             : en:Chapter 11
00:44:23.268                             : en:Chapter 12
00:48:28.701                             : en:Chapter 13
00:51:57.901                             : en:Chapter 14
00:54:28.701                             : en:Chapter 15
00:55:29.867                             : en:Chapter 16
00:56:59.601                             : en:Chapter 17
01:02:35.667                             : en:Chapter 18
01:12:24.167                             : en:Chapter 19
01:17:15.600                             : en:Chapter 20
01:21:32.833                             : en:Chapter 21
01:24:35.700                             : en:Chapter 22
01:25:54.500                             : en:Chapter 23
01:29:04.234                             : en:Chapter 24
01:30:23.701                             : en:Chapter 25
01:35:44.201                             : en:Chapter 26
01:36:20.434                             : en:Chapter 27
01:38:37.067                             : en:Chapter 28




Encode 720p Vs Dvd (Pal) Vs Dvd (Ntsc)

Imagen
Imagen
Imagen




CAPTURAS


Imagen
Imagen
Imagen
Imagen
Imagen
Imagen
Imagen
Imagen
Imagen




Enlaces de descarga

Imagen

eD2K link 1978-California.Suite.WEBRip.720p.AC3[DMMD].mkv [4.05 Gb] 
Avatar de Usuario
DMMD
 
Mensajes: 498
Temas: 237
Registrado: 16 Oct 2012, 14:35

Re: California Suite (Herbert Ross, 1978) WEBRip 720p Dual SE

Notapor yojimbo » 18 Nov 2017, 15:29

Muchas gracias, DMMD.
Avatar de Usuario
yojimbo
 
Mensajes: 6644
Temas: 17
Registrado: 18 Oct 2012, 13:25


Volver a Largos Contemporáneos

¿Quién está conectado?

Usuarios navegando por este Foro: No hay usuarios registrados visitando el Foro y 1 invitado