Página 1 de 1

Missing (Costa-Gavras, 1982) BDRip 1080p Dual SE

NotaPublicado: 10 Ene 2018, 18:56
por santiagoo
Desaparecido (Missing) (Costa-Gavras, 1982)

Imagen
Imagen
Filmaffinity | IMDb

Guion: Donald E. Stewart, Costa-Gavras (Novela: Thomas Hauser)
Música: Vangelis
Fotografía: Ricardo Aronovich
Reparto: Jack Lemmon, Sissy Spacek, Melanie Mayron, John Shea, Charles Cioffi, Richard Bradford, Janice Rule, David Clennon, Jerry Hardin, Martin Lasalle
Productora: Universal Pictures
Género: Drama | Política | Basado en hechos reales | Dictadura chilena | Años 70

Sinopsis:
Charles Horman (John Shea), un joven e idealista periodista norteamericano, desaparece de su domicilio en Santiago de Chile tras el golpe de Estado del general Augusto Pinochet (11-9-1973). Su mujer (Sissy Spacek) y su padre (Jack Lemmon), que se traslada allí desde los Estados Unidos, intentan averiguar su paradero y vivirán una auténtica odisea recorriendo las instituciones diplomáticas norteamericanas y tropezando con infinitas trabas burocráticas. (FILMAFFINITY)



Gracias a quienes compartieron el BD.
Spoiler:
Dadas las (extrañas) circunstancias en las que actualmente parecemos movernos en el mundo p2p (en especial, en lo relativo a los trackers privados), de aquí en adelante haré "agradecimientos genéricos" a quienes compartieron la fuente original y no enlazaré a dicha fuente original en mis posts.
Disculpen las molestias




Ripeo con esta configuración:
Código: Seleccionar todo
"C:\x264.exe" --preset veryslow --tune film --crf 19.0 --level 4.1 --output "C:\mi_ripeo.mkv" "C:\mi_script.avs"


Imagen
Imagen
Imagen
Imagen
Imagen
Imagen
Imagen
Imagen
Imagen


Código: Seleccionar todo
Format : Matroska
Format version : Version 4 / Version 2
File size : 14.3 GiB
Duration : 1 h 57 min
Overall bit rate : 17.5 Mb/s
Writing application : mkvmerge v19.0.0 ('Brave Captain') 64-bit
Writing library : libebml v1.3.5 + libmatroska v1.4.8

Video
ID : 1
Format : AVC
Format/Info : Advanced Video Codec
Format profile : High@L4.1
Format settings : CABAC / 4 Ref Frames
Format settings, CABAC : Yes
Format settings, RefFrames : 4 frames
Codec ID : V_MPEG4/ISO/AVC
Duration : 1 h 57 min
Bit rate : 17.2 Mb/s
Width : 1 920 pixels
Height : 1 040 pixels
Display aspect ratio : 1.85:1
Frame rate mode : Constant
Frame rate : 25.000 FPS
Color space : YUV
Chroma subsampling : 4:2:0
Bit depth : 8 bits
Scan type : Progressive
Bits/(Pixel*Frame) : 0.344
Stream size : 14.1 GiB (98%)
Writing library : x264 core 155 r2893 b00bcaf
Encoding settings : cabac=1 / ref=4 / deblock=1:-1:-1 / analyse=0x3:0x133 / me=umh / subme=10 / psy=1 / psy_rd=1.00:0.15 / mixed_ref=1 / me_range=24 / chroma_me=1 / trellis=2 / 8x8dct=1 / cqm=0 / deadzone=21,11 / fast_pskip=1 / chroma_qp_offset=-3 / threads=6 / lookahead_threads=1 / sliced_threads=0 / nr=0 / decimate=1 / interlaced=0 / bluray_compat=0 / constrained_intra=0 / bframes=8 / b_pyramid=2 / b_adapt=2 / b_bias=0 / direct=3 / weightb=1 / open_gop=0 / weightp=2 / keyint=250 / keyint_min=25 / scenecut=40 / intra_refresh=0 / rc_lookahead=60 / rc=crf / mbtree=1 / crf=19.0 / qcomp=0.60 / qpmin=0 / qpmax=69 / qpstep=4 / ip_ratio=1.40 / aq=1:1.00
Language : English
Default : Yes
Forced : No

Audio #1
ID : 2
Format : AAC
Format/Info : Advanced Audio Codec
Format profile : LC
Codec ID : A_AAC-2
Duration : 1 h 57 min
Bit rate : 165 kb/s
Channel(s) : 2 channels
Channel positions : Front: L R
Sampling rate : 48.0 kHz
Frame rate : 46.875 FPS (1024 SPF)
Compression mode : Lossy
Stream size : 139 MiB (1%)
Language : English
Writing library : qaac 2.64, CoreAudioToolbox 7.10.9.0
Encoding settings : qaac -V 127 --ignorelength --adts --no-delay -o
VBR min./avg./max. : 4 / 167 / 279 Kb/s.
Duration.......... : 7050.176 sec., (1h. 57m. 30.176s.)
Default : Yes
Forced : No

Audio #2
ID : 3
Format : AAC
Format/Info : Advanced Audio Codec
Format profile : LC
Codec ID : A_AAC-2
Duration : 1 h 57 min
Bit rate : 140 kb/s
Channel(s) : 2 channels
Channel positions : Front: L R
Sampling rate : 48.0 kHz
Frame rate : 46.875 FPS (1024 SPF)
Compression mode : Lossy
Stream size : 118 MiB (1%)
Title : Doblaje
Language : Spanish
Writing library : qaac 2.64, CoreAudioToolbox 7.10.9.0
Encoding settings : qaac -V 127 --ignorelength --adts --no-delay -o
VBR min./avg./max. : 6 / 142 / 352 Kb/s.
Duration.......... : 7050.411 sec., (1h. 57m. 30.411s.)
Default : No
Forced : No

Text #1
ID : 4
Format : UTF-8
Codec ID : S_TEXT/UTF8
Codec ID/Info : UTF-8 Plain Text
Duration : 1 h 52 min
Bit rate : 64 b/s
Count of elements : 1405
Stream size : 53.4 KiB (0%)
Language : Spanish
Default : Yes
Forced : No

Text #2
ID : 5
Format : UTF-8
Codec ID : S_TEXT/UTF8
Codec ID/Info : UTF-8 Plain Text
Duration : 1 h 53 min
Bit rate : 77 b/s
Count of elements : 1578
Stream size : 64.8 KiB (0%)
Language : English
Default : No
Forced : No

Text #3
ID : 6
Format : UTF-8
Codec ID : S_TEXT/UTF8
Codec ID/Info : UTF-8 Plain Text
Duration : 1 h 48 min
Bit rate : 0 b/s
Count of elements : 5
Stream size : 177 Bytes (0%)
Title : Forzados
Language : Spanish
Default : No
Forced : Yes

Text #4
ID : 7
Format : VobSub
Muxing mode : zlib
Codec ID : S_VOBSUB
Codec ID/Info : Picture based subtitle format used on DVDs
Duration : 1 h 57 min
Bit rate : 8 488 b/s
Count of elements : 1740
Stream size : 7.12 MiB (0%)
Title : French Vobsubs
Language : French
Default : No
Forced : No

Text #5
ID : 8
Format : VobSub
Muxing mode : zlib
Codec ID : S_VOBSUB
Codec ID/Info : Picture based subtitle format used on DVDs
Duration : 1 h 54 min
Bit rate : 92 b/s
Count of elements : 17
Stream size : 77.0 KiB (0%)
Title : French Vobsubs (Forced)
Language : French
Default : No
Forced : No

Menu
00:00:00.000 : en:00:00:00.000
00:10:17.000 : en:00:10:17.000
00:16:45.920 : en:00:16:45.920
00:24:19.120 : en:00:24:19.120
00:34:34.000 : en:00:34:34.000
00:38:37.480 : en:00:38:37.480
00:47:09.320 : en:00:47:09.320
00:58:15.520 : en:00:58:15.520
01:08:07.320 : en:01:08:07.320
01:16:05.120 : en:01:16:05.120
01:34:14.000 : en:01:34:14.000
01:49:53.480 : en:01:49:53.480





:arrow: BDRip Dual (V.O. - doblaje en castellano) 1080p, con subtítulos en español e inglés en el contenedor MKV (14.34 GBs)

:arrow: Subtítulos por separado
, por si alguien los necesita para... (86 KBs)

Tanto los subtítulos como el doblaje se tomaron de un HD 720p que circula por emule ( eD2K link Missing (Desaparecido). Constantin Costa-Gavras, 1982. 720p Dual+Subs.mkv [3.69 Gb]  ) de autor desconocido para mí (muchas gracias en todo caso) y se resincronizaron para este ripeo.



:arrow: Cómo buscar archivos en emule. Necesario para buscar lo anterior...





----------------------------------------------------


Imagen Imagen

Última versión del codec x264 (inglés) | Web en español sobre el codec x264
Manual de ripeo con x264 en línea de comandos (español) | Parámetros de codificación (inglés)
Contenedor Matroska (español) | Matroska en wikipedia (español): software de PC compatible, etc.
MKVToolnix, herramientas de edición para matroska (inglés) | Añadir cadenas de audio o subtítulos con MKVToolnix (español)
MKVExtractGui | Manual de extracción de cadenas de audio/vídeo/subtítulos en MKV (español)
Cómo crear BDRips MKV/x264 1080p o 1080p (español) | Guía avanzada para crear DVDRips MKV/x264 paso a paso (inglés)



Nota: El papel de este que postea aquí es el de mero emisario, solo copypasteo el trabajo (doblaje incluído) del habitual de la plantilla.

Re: Missing (Costa-Gavras, 1982) BDRip 1080p Dual SE

NotaPublicado: 11 Ene 2018, 00:10
por Guiller3
"Missing", es una joya cinematográfica y una de las mejores historias políticas que se hayan rodado en el siglo XX. Ganadora de la Palma de Oro en Cannes a Mejor Película y Mejor Actor y Premio Oscar a Mejor Guion Adaptado (Costa-Gavras- Donald Steward).

Un gran regalo santiagoo. Te luciste.

Re: Missing (Costa-Gavras, 1982) BDRip 1080p Dual SE

NotaPublicado: 11 Ene 2018, 23:06
por humanimal
Muchas gracias por el aporte. Un saludo

Re: Missing (Costa-Gavras, 1982) BDRip 1080p Dual SE

NotaPublicado: 12 Ene 2018, 13:16
por mifune
Muchas gracias al equipo habitual. Rabia, impotencia y desolación, es lo que recuerdo mientras veía esta película. Siempre me han parecido injustas las críticas hacia su cine "tendencioso y manipulador". La neutralidad no creo que exista.

Re: Missing (Costa-Gavras, 1982) BDRip 1080p Dual SE

NotaPublicado: 12 Ene 2018, 20:12
por Jon Olarticoetxea
mifune escribió:Muchas gracias al equipo habitual. Rabia, impotencia y desolación, es lo que recuerdo mientras veía esta película. Siempre me han parecido injustas las críticas hacia su cine "tendencioso y manipulador". La neutralidad no creo que exista.


Esta película es bastante "objetiva". La idea de que el padre sea un hombre que cree ciegamente en el sistema fue todo un acierto para equilibrar la crítica institucional que se hace en el guión. La mejor película de Costa-Gavras, para mí.