Godard, l'amour, la poesie (Luc Lagier, 2007) DVDRip VOSE

Moderador: loperena

Reglas del Foro
Norma de los tres años.

Francia Godard, l'amour, la poesie (Luc Lagier, 2007) DVDRip VOSE

Notapor yogiyamada » 28 Ene 2017, 17:57

Godard, l'amour, la poesie
(Luc Lagier, 2007)



Imagen


Imagen


SINOPSIS


El protagonista masculino de este documental se llama Jean-Luc Godard. La chica se llama Angela, Nana, Veronica, Natacha, Odile y Marianne; es decir Anna Karina. Sólo pasaron juntos cinco años, entre 1960 y 1965 (desde la explosión metafórica, en blanco y negro, de Sin aliento hasta la literal y a colores con que termina Pierrot el loco): él escribiendo y filmando, ella inspirándolo, dándoles rostro y voz a mujeres inolvidables, iluminando películas con su mirada. Lagier piensa que JLG dejó impresas en celuloide (en Una mujer es una mujer, Vivir su vida, El soldadito, Alphaville, Asalto frustrado y Pierrot el loco, pero también en las películas que hizo sin AK durante el período, sobre todo El desprecio) huellas, pistas: los signos cambiantes de ese amor a una mujer inseparable del amor al cine. Y sale a buscarlos, con inteligencia crítica, en fragmentos de films a pantalla dividida, en fotografías miradas con lupa, en un puñado de entrevistas, en la voz de Anna Karina, para encontrar una película de amor que es también una historia del cine, como la hubiera contado Godard. (FILMAFFINITY)


FICHA ARTÍSTICA

Director: Luc Lagier
Tema: Jean luc Godard
Producción: CinéCinéma / Point du Jour / StudioCanal
País: Francia
Guión: Luc Lagier
Año: 2007
Duración: 53 min.
Montaje: Alexandre Auque
Fotografía: Alexandre Auque, Magali Roucaut


COMENTARIOS


Interesante propuesta para los que gustan del cine de Godard, especialmente en esa mítica primera etapa. El documental tiene un tono melancólico, una revisión con mucha carga emotiva de aquellos años. Nos muestra a una Anna Karina en todo su esplendor, dejando entrever la mirada del autor y su complicidad con la belleza femenina y al mismo tiempo la de un cine que ya pasó. Les comparto un rip que hice de un Dvd bajado de Cinematic. Los subtítulos que hay Subdvx calzan perfectos.

DATOS TÉCNICOS



Código: Seleccionar todo
General
Complete name               : Godard, l'amour, la poesie
Format                      : MPEG-4
Format profile              : Base Media
Codec ID                    : isom (isom)
File size                   : 387 MiB
Duration                    : 53 min 0 s
Overall bit rate            : 1 021 kb/s
Encoded date                : UTC 2017-01-27 14:25:45
Tagged date                 : UTC 2017-01-27 14:25:45

Video
ID                          : 1
Format                      : AVC
Format/Info                 : Advanced Video Codec
Format profile              : High@L4.1
Format settings, CABAC      : Yes
Format settings, ReFrames   : 4 frames
Codec ID                    : avc1
Codec ID/Info               : Advanced Video Coding
Duration                    : 53 min 0 s
Bit rate                    : 847 kb/s
Maximum bit rate            : 18.0 Mb/s
Width                       : 688 pixels
Height                      : 384 pixels
Display aspect ratio        : 16:9
Frame rate mode             : Constant
Frame rate                  : 25.000 FPS
Color space                 : YUV
Chroma subsampling          : 4:2:0
Bit depth                   : 8 bits
Scan type                   : Progressive
Bits/(Pixel*Frame)          : 0.128
Stream size                 : 313 MiB (81%)
Writing library             : x264 core 148 r2638 7599210
Encoding settings           : cabac=1 / ref=4 / deblock=1:0:0 / analyse=0x3:0x133 / me=tesa / subme=11 / psy=1 / psy_rd=1.00:0.15 / mixed_ref=1 / me_range=16 / chroma_me=1 / trellis=2 / 8x8dct=1 / cqm=0 / deadzone=21,11 / fast_pskip=0 / chroma_qp_offset=-3 / threads=4 / lookahead_threads=1 / sliced_threads=0 / nr=0 / decimate=1 / interlaced=0 / bluray_compat=0 / constrained_intra=0 / bframes=5 / b_pyramid=2 / b_adapt=2 / b_bias=0 / direct=3 / weightb=1 / open_gop=0 / weightp=2 / keyint=250 / keyint_min=25 / scenecut=40 / intra_refresh=0 / rc_lookahead=60 / rc=abr / mbtree=1 / bitrate=847 / ratetol=1.0 / qcomp=0.60 / qpmin=0 / qpmax=69 / qpstep=4 / vbv_maxrate=62500 / vbv_bufsize=78125 / nal_hrd=none / filler=0 / ip_ratio=1.40 / aq=1:1.00
Encoded date                : UTC 2017-01-27 13:40:19
Tagged date                 : UTC 2017-01-27 14:25:47

Audio
ID                          : 2
Format                      : AC-3
Format/Info                 : Audio Coding 3
Mode extension              : CM (complete main)
Format settings, Endianness : Big
Codec ID                    : ac-3
Duration                    : 52 min 59 s
Bit rate mode               : Constant
Bit rate                    : 192 kb/s
Maximum bit rate            : 203 kb/s
Channel(s)                  : 2 channels
Channel positions           : Front: L R
Sampling rate               : 48.0 kHz
Frame rate                  : 31.250 FPS (1536 spf)
Bit depth                   : 16 bits
Compression mode            : Lossy
Stream size                 : 72.8 MiB (19%)
Encoded date                : UTC 2017-01-27 14:25:46
Tagged date                 : UTC 2017-01-27 14:25:47



CAPTURAS

Imagen
Imagen
Imagen
Imagen




eD2K link Godard, l'amour, la poesie.mp4 [387.00 Mb] 
Subtítulos en español (Artebreve en subdvix, son los mismos del Dvd)
Aportemos todos a que el Cine hable al alma al compartirlo libremente.
Avatar de Usuario
yogiyamada
 
Mensajes: 562
Temas: 8
Registrado: 02 Oct 2012, 18:44

Re: Godard, l'amour, la poesie (Luc Lagier, 2007) DVDrip VOSE

Notapor loperena » 28 Ene 2017, 18:06

Muchas gracias por el documental :aplauso:
Avatar de Usuario
loperena
 
Mensajes: 2096
Temas: 149
Registrado: 02 Oct 2012, 21:01

Re: Godard, l'amour, la poesie (Luc Lagier, 2007) DVDrip VOSE

Notapor yogiyamada » 28 Ene 2017, 18:33

De nada, lo tenía pendiente de subir.
Aportemos todos a que el Cine hable al alma al compartirlo libremente.
Avatar de Usuario
yogiyamada
 
Mensajes: 562
Temas: 8
Registrado: 02 Oct 2012, 18:44

Re: Godard, l'amour, la poesie (Luc Lagier, 2007) DVDrip VOSE

Notapor Monsieur Lange » 28 Ene 2017, 18:49

Gracias Yogi. Bajando :hi:
"¡De buena nos hemos librado! ¡Nada menos que el señorito salamanquino!

Francisco Camacho (1936). "El cura de aldea"
Avatar de Usuario
Monsieur Lange
 
Mensajes: 2962
Temas: 73
Registrado: 13 Sep 2012, 17:39
Ubicación: Cruzando las dunas

Re: Godard, l'amour, la poesie (Luc Lagier, 2007) DVDrip VOSE

Notapor eddelon » 29 Ene 2017, 03:38

MERCI!!! Yogiyamada, me la llevo. :genial:

:hi:
Avatar de Usuario
eddelon
 
Mensajes: 1997
Temas: 15
Registrado: 27 Oct 2012, 23:05
Ubicación: Buenos Aires,Argentina

Re: Godard, l'amour, la poesie (Luc Lagier, 2007) DVDrip VOSE

Notapor yogiyamada » 29 Ene 2017, 14:22

De nada Monsieur Lange y eddelon, un placer compartir.
Aportemos todos a que el Cine hable al alma al compartirlo libremente.
Avatar de Usuario
yogiyamada
 
Mensajes: 562
Temas: 8
Registrado: 02 Oct 2012, 18:44

Re: Godard, l'amour, la poesie (Luc Lagier, 2007) DVDrip VOSE

Notapor sete » 29 Ene 2017, 22:27

Muchas gracias, yogiyamada.
:hi:
Este mundo está traicionando a la vida.
José Luis Sampedro
Avatar de Usuario
sete
 
Mensajes: 2500
Registrado: 22 Dic 2012, 15:10

Re: Godard, l'amour, la poesie (Luc Lagier, 2007) DVDrip VOSE

Notapor yogiyamada » 29 Ene 2017, 23:45

De nada Sete, buen provecho cinematográfico.
Aportemos todos a que el Cine hable al alma al compartirlo libremente.
Avatar de Usuario
yogiyamada
 
Mensajes: 562
Temas: 8
Registrado: 02 Oct 2012, 18:44

Re: Godard, l'amour, la poesie (Luc Lagier, 2007) DVDrip VOSE

Notapor ciberyago » 31 Ene 2017, 04:25

Muchas gracias
ciberyago
 
Mensajes: 1829
Temas: 3
Registrado: 20 Oct 2012, 05:26

Re: Godard, l'amour, la poesie (Luc Lagier, 2007) DVDrip VOSE

Notapor yogiyamada » 02 Feb 2017, 00:33

No hay por qué ciberyago
Aportemos todos a que el Cine hable al alma al compartirlo libremente.
Avatar de Usuario
yogiyamada
 
Mensajes: 562
Temas: 8
Registrado: 02 Oct 2012, 18:44

Siguiente

Volver a Documentales

¿Quién está conectado?

Usuarios navegando por este Foro: No hay usuarios registrados visitando el Foro y 1 invitado