Rabbit Fire (Chuck Jones, 1951) BR 720p Dual SE

Temporada de Caza

Moderador: yogiyamada

Reglas del Foro
Norma de los tres años.

Estados Unidos Rabbit Fire (Chuck Jones, 1951) BR 720p Dual SE

Notapor FrOnkY » 27 Sep 2014, 21:32

Imagen

IMDb

GUIÓN Michael Maltese
MÚSICA Carl W. Stalling
PRODUCCIÓN Warner Bros. Pictures
SINOPSIS Caza Superior

Código: Seleccionar todo
Rabbit.Fire.(Temporada.De.Caza).1951.BR.720p.x264.AC3.[FrOnkY].mkv

Format                                   : Matroska
Format version                           : Version 4 / Version 2
File size                                : 440 MiB
Duration                                 : 7mn 32s
Overall bit rate                         : 8 165 Kbps
Writing application                      : mkvmerge v6.9.1 ('Blue Panther') 32bit built on Apr 18 2014 18:15:44
Writing library                          : libebml v1.3.0 + libmatroska v1.4.1
Attachment                               : Yes

Video
ID                                       : 1
Format                                   : AVC
Format/Info                              : Advanced Video Codec
Format profile                           : High@L4.1
Format settings, CABAC                   : Yes
Format settings, ReFrames                : 12 frames
Codec ID                                 : V_MPEG4/ISO/AVC
Duration                                 : 7mn 32s
Bit rate                                 : 7 777 Kbps
Width                                    : 960 pixels
Height                                   : 720 pixels
Display aspect ratio                     : 4:3
Frame rate mode                          : Constant
Frame rate                               : 23.976 fps
Color space                              : YUV
Chroma subsampling                       : 4:2:0
Bit depth                                : 8 bits
Scan type                                : Progressive
Bits/(Pixel*Frame)                       : 0.469
Stream size                              : 411 MiB (93%)
Writing library                          : x264 core 142 r2389 956c8d8
Language                                 : English
Default                                  : Yes
Forced                                   : No

Audio #1
ID                                       : 2
Format                                   : AC-3
Format/Info                              : Audio Coding 3
Mode extension                           : CM (complete main)
Format settings, Endianness              : Big
Codec ID                                 : A_AC3
Duration                                 : 7mn 32s
Bit rate mode                            : Constant
Bit rate                                 : 192 Kbps
Channel(s)                               : 1 channel
Channel positions                        : Front: C
Sampling rate                            : 48.0 KHz
Bit depth                                : 16 bits
Stream size                              : 10.4 MiB (2%)
Language                                 : Spanish
Default                                  : Yes
Forced                                   : No

Audio #2
ID                                       : 3
Format                                   : AC-3
Format/Info                              : Audio Coding 3
Mode extension                           : CM (complete main)
Format settings, Endianness              : Big
Codec ID                                 : A_AC3
Duration                                 : 7mn 32s
Bit rate mode                            : Constant
Bit rate                                 : 192 Kbps
Channel(s)                               : 1 channel
Channel positions                        : Front: C
Sampling rate                            : 48.0 KHz
Bit depth                                : 16 bits
Stream size                              : 10.4 MiB (2%)
Language                                 : English
Default                                  : No
Forced                                   : No

Text #1
ID                                       : 4
Format                                   : UTF-8
Codec ID                                 : S_TEXT/UTF8
Codec ID/Info                            : UTF-8 Plain Text
Language                                 : Spanish
Default                                  : No
Forced                                   : No

Text #2
ID                                       : 5
Format                                   : UTF-8
Codec ID                                 : S_TEXT/UTF8
Codec ID/Info                            : UTF-8 Plain Text
Language                                 : English
Default                                  : No
Forced                                   : No

Text #3
ID                                       : 6
Format                                   : UTF-8
Codec ID                                 : S_TEXT/UTF8
Codec ID/Info                            : UTF-8 Plain Text
Language                                 : French
Default                                  : No
Forced                                   : No

HDubClassic

Imagen

eD2K link Rabbit.Fire.(Temporada.De.Caza).1951.BR.720p.x264.AC3.[FrOnkY].mkv [440.41 Mb] 
Imagen
Imagen
Avatar de Usuario
FrOnkY
 
Mensajes: 917
Temas: 227
Registrado: 16 Oct 2012, 13:02

Re: Rabbit Fire (Chuck Jones, 1951) BR 720p Dual SE

Notapor cerb » 27 Sep 2014, 21:52

Muchas gracias FrOnkY :genial:
cerb
 
Mensajes: 153
Temas: 1
Registrado: 27 Ene 2013, 18:09

Re: Rabbit Fire (Chuck Jones, 1951) BR 720p Dual SE

Notapor ciberyago » 28 Sep 2014, 08:42

¡Gracias Fronky!!!
ciberyago
 
Mensajes: 1829
Temas: 3
Registrado: 20 Oct 2012, 05:26

Re: Rabbit Fire (Chuck Jones, 1951) BR 720p Dual SE

Notapor yojimbo » 28 Sep 2014, 14:46

Muchas gracias, FrOnkY.
Avatar de Usuario
yojimbo
 
Mensajes: 6795
Temas: 17
Registrado: 18 Oct 2012, 12:25

Re: Rabbit Fire (Chuck Jones, 1951) BR 720p Dual SE

Notapor jail » 28 Sep 2014, 15:47

gracias, Fronky.
jail
 
Mensajes: 4155
Temas: 6
Registrado: 18 Oct 2012, 13:34

Re: Rabbit Fire (Chuck Jones, 1951) BR 720p Dual SE

Notapor asung » 28 Sep 2014, 19:33

Gracias FrOnkY, me la llevo al Galeón
asung
 
Mensajes: 568
Registrado: 16 Oct 2012, 19:57

Re: Rabbit Fire (Chuck Jones, 1951) BR 720p Dual SE

Notapor professor keller » 29 Sep 2014, 10:04

Grosso, Fronky, :agite: ¿Para cuándo una del Gallo Claudio?
La pluma en el ojo
Proyecto colectivo de ideas cinéfilas
Avatar de Usuario
professor keller
 
Mensajes: 4303
Temas: 344
Registrado: 03 Oct 2012, 08:07
Ubicación: Buenos Aires

Re: Rabbit Fire (Chuck Jones, 1951) BR 720p Dual SE

Notapor FrOnkY » 29 Sep 2014, 11:15

Para cuando se abra la temporada de gallos, profeK
Imagen
Imagen
Avatar de Usuario
FrOnkY
 
Mensajes: 917
Temas: 227
Registrado: 16 Oct 2012, 13:02

Re: Rabbit Fire (Chuck Jones, 1951) BR 720p Dual SE

Notapor FrOnkY » 01 Oct 2014, 14:26

Completados los 72 Kilates de la Historia Cartoon: la "Trilogía de la Caza".

Los otros 2:

Rabbit Seasoning --> viewtopic.php?f=79&t=8564
Duck! Rabbit, Duck! --> viewtopic.php?f=79&t=8573

Ahp... y con el audy zpanish de siempre (nunca utilizado en formato digital algunop)


ñññeeeee
Imagen
Imagen
Avatar de Usuario
FrOnkY
 
Mensajes: 917
Temas: 227
Registrado: 16 Oct 2012, 13:02


Volver a Cortos Animación

¿Quién está conectado?

Usuarios navegando por este Foro: No hay usuarios registrados visitando el Foro y 1 invitado