Vincent (Tim Burton, 1982) HQTV 720p Dual SE

Moderador: yogiyamada

Reglas del Foro
Norma de los tres años.

Estados Unidos Vincent (Tim Burton, 1982) HQTV 720p Dual SE

Notapor FrOnkY » 27 Oct 2014, 21:11

Imagen

PRICE

Imagen

IMDb

GUIÓN Tim Burton
MÚSICA Ken Hilton
FOTOGRAFÍA Victor Abdalov
PRODUCCIÓN Walt Disney Productions / Buena Vista Distribution Company
SINOPSIS Tim Price... Vincent Burton

Código: Seleccionar todo
Vincent.1982.HQTV.OAR.720p.x264.2AC3.[FrOnkY].mkv

Format                                   : Matroska
Format version                           : Version 4 / Version 2
File size                                : 204 MiB
Duration                                 : 5mn 53s
Overall bit rate                         : 4 843 Kbps
Writing application                      : mkvmerge v6.9.1 ('Blue Panther') 32bit built on Apr 18 2014 18:15:44
Writing library                          : libebml v1.3.0 + libmatroska v1.4.1
Attachements                             : Vincent1.jpg / Vincent2.jpg / Vincent3.jpg / Vincent4.jpg / Vincent5.jpg

Video
ID                                       : 1
Format                                   : AVC
Format/Info                              : Advanced Video Codec
Format profile                           : High@L4.1
Format settings, CABAC                   : Yes
Format settings, ReFrames                : 12 frames
Codec ID                                 : V_MPEG4/ISO/AVC
Duration                                 : 5mn 53s
Bit rate                                 : 4 444 Kbps
Width                                    : 948 pixels
Height                                   : 720 pixels
Display aspect ratio                     : 4:3
Frame rate mode                          : Constant
Frame rate                               : 23.976 fps
Color space                              : YUV
Chroma subsampling                       : 4:2:0
Bit depth                                : 8 bits
Scan type                                : Progressive
Bits/(Pixel*Frame)                       : 0.272
Stream size                              : 184 MiB (90%)
Writing library                          : x264 core 142 r2479 dd79a61
Language                                 : English
Default                                  : Yes
Forced                                   : No

Audio #1
ID                                       : 2
Format                                   : AC-3
Format/Info                              : Audio Coding 3
Mode extension                           : CM (complete main)
Format settings, Endianness              : Big
Codec ID                                 : A_AC3
Duration                                 : 5mn 53s
Bit rate mode                            : Constant
Bit rate                                 : 192 Kbps
Channel(s)                               : 2 channels
Channel positions                        : Front: L R
Sampling rate                            : 48.0 KHz
Bit depth                                : 16 bits
Stream size                              : 8.09 MiB (4%)
Language                                 : English
Default                                  : Yes
Forced                                   : No

Audio #2
ID                                       : 3
Format                                   : AC-3
Format/Info                              : Audio Coding 3
Format profile                           : Dolby Digital
Mode extension                           : CM (complete main)
Format settings, Endianness              : Big
Codec ID                                 : A_AC3
Duration                                 : 5mn 53s
Bit rate mode                            : Constant
Bit rate                                 : 192 Kbps
Channel(s)                               : 2 channels
Channel positions                        : Front: L R
Sampling rate                            : 48.0 KHz
Bit depth                                : 16 bits
Stream size                              : 8.09 MiB (4%)
Language                                 : Spanish
Default                                  : No
Forced                                   : No

Text #1
ID                                       : 4
Format                                   : UTF-8
Codec ID                                 : S_TEXT/UTF8
Codec ID/Info                            : UTF-8 Plain Text
Language                                 : Spanish
Default                                  : Yes
Forced                                   : No

Text #2
ID                                       : 5
Format                                   : UTF-8
Codec ID                                 : S_TEXT/UTF8
Codec ID/Info                            : UTF-8 Plain Text
Language                                 : English
Default                                  : No
Forced                                   : No

Text #3
ID                                       : 6
Format                                   : UTF-8
Codec ID                                 : S_TEXT/UTF8
Codec ID/Info                            : UTF-8 Plain Text
Language                                 : French
Default                                  : No
Forced                                   : No

Text #4
ID                                       : 7
Format                                   : UTF-8
Codec ID                                 : S_TEXT/UTF8
Codec ID/Info                            : UTF-8 Plain Text
Language                                 : Portuguese
Default                                  : No
Forced                                   : No


eD2K link Imagen

Imagen

magnet:?xt=urn:btih:8d3b46d0129e18b3751df02071e778c885b9bd44
Última edición por FrOnkY el 29 Oct 2014, 23:42, editado 2 veces en total
Imagen
Imagen
Avatar de Usuario
FrOnkY
 
Mensajes: 917
Temas: 227
Registrado: 16 Oct 2012, 13:02

Re: Vincent (Tim Burton, 1982) HQTV 720p VOSE

Notapor jcarlos7840 » 27 Oct 2014, 21:19

Enorme Fronky
Imagen
Avatar de Usuario
jcarlos7840
 
Mensajes: 176
Registrado: 25 Nov 2012, 15:14

Re: Vincent (Tim Burton, 1982) HQTV 720p VOSE

Notapor jail » 27 Oct 2014, 22:00

Venga Vincent, vámonos para casa. Pone cara de asustado el pobre.
Montaña de kbps, y en BN.
jail
 
Mensajes: 4155
Temas: 6
Registrado: 18 Oct 2012, 13:34

Re: Vincent (Tim Burton, 1982) HQTV 720p VOSE

Notapor mifune » 27 Oct 2014, 22:56

Noto algo raro, x265, x264, x263...

Muchas gracias.
Cine, cine, cine. Más cine, por favor...
Avatar de Usuario
mifune
 
Mensajes: 5750
Temas: 786
Registrado: 02 Oct 2012, 18:48
Ubicación: Welcome to the Jungle

Re: Vincent (Tim Burton, 1982) HQTV 720p VOSE

Notapor yojimbo » 28 Oct 2014, 11:54

Muchas gracias, FrOnkY.
Avatar de Usuario
yojimbo
 
Mensajes: 6795
Temas: 17
Registrado: 18 Oct 2012, 12:25

Re: Vincent (Tim Burton, 1982) HQTV 720p VOSE

Notapor FrOnkY » 28 Oct 2014, 12:39

Tumorrou en x266...

... ó 269, ya verép

Imagen
Imagen
Imagen
Avatar de Usuario
FrOnkY
 
Mensajes: 917
Temas: 227
Registrado: 16 Oct 2012, 13:02

Re: Vincent (Tim Burton, 1982) HQTV 720p VOSE

Notapor Gorkus » 28 Oct 2014, 18:12

Muchiiiiiiiiiiiiiiiiiiiiiiiiiiiiiisimas gracias
:drinks:
Avatar de Usuario
Gorkus
 
Mensajes: 404
Registrado: 27 Oct 2012, 18:59

Re: Vincent (Tim Burton, 1982) HQTV 720p VOSE

Notapor FrOnkY » 29 Oct 2014, 23:15

SPESIAL HALLOWYNy!

Nuevos enlacicos de Vincent en Dualy (dobly dolby)... y con el OriginalAspectRatiop!!

ACELEBRARLOp!!!
Imagen
Imagen
Avatar de Usuario
FrOnkY
 
Mensajes: 917
Temas: 227
Registrado: 16 Oct 2012, 13:02

Re: Vincent (Tim Burton, 1982) HQTV 720p VOSE

Notapor yojimbo » 29 Oct 2014, 23:17

¡Bravo! :aplauso: :aplauso: :aplauso:
Avatar de Usuario
yojimbo
 
Mensajes: 6795
Temas: 17
Registrado: 18 Oct 2012, 12:25


Volver a Cortos Animación

¿Quién está conectado?

Usuarios navegando por este Foro: No hay usuarios registrados visitando el Foro y 1 invitado