Lonesome Ghosts (Burt Gillett, 1937) HQ 720p Dual SE

Fantasmas Solitarios

Moderador: yogiyamada

Reglas del Foro
Norma de los tres años.

Estados Unidos Lonesome Ghosts (Burt Gillett, 1937) HQ 720p Dual SE

Notapor FrOnkY » 06 May 2015, 11:43

Imagen

IMDb

Imagen

Spoiler:
Video
ID : 1
Format : AVC
Format/Info : Advanced Video Codec
Format profile : High@L4.1
Format settings, CABAC : Yes
Format settings, ReFrames : 11 frames
Codec ID : V_MPEG4/ISO/AVC
Duration : 8mn 47s
Bit rate : 5 432 Kbps
Width : 986 pixels
Height : 720 pixels
Display aspect ratio : 4:3
Frame rate mode : Constant
Frame rate : 23.976 fps
Color space : YUV
Chroma subsampling : 4:2:0
Bit depth : 8 bits
Scan type : Progressive
Bits/(Pixel*Frame) : 0.319
Stream size : 335 MiB (91%)
Writing library : x264 core 142 r2491 24e4fed
Language : English
Default : Yes
Forced : No

Audio #1
ID : 2
Format : AC-3
Format/Info : Audio Coding 3
Mode extension : CM (complete main)
Format settings, Endianness : Big
Codec ID : A_AC3
Duration : 8mn 47s
Bit rate mode : Constant
Bit rate : 192 Kbps
Channel(s) : 2 channels
Channel positions : Front: L R
Sampling rate : 48.0 KHz
Bit depth : 16 bits
Stream size : 12.1 MiB (3%)
Language : English
Default : Yes
Forced : No

Audio #2
ID : 3
Format : AC-3
Format/Info : Audio Coding 3
Mode extension : CM (complete main)
Format settings, Endianness : Big
Codec ID : A_AC3
Duration : 8mn 47s
Bit rate mode : Constant
Bit rate : 192 Kbps
Channel(s) : 2 channels
Channel positions : Front: L R
Sampling rate : 48.0 KHz
Bit depth : 16 bits
Stream size : 12.1 MiB (3%)
Language : Spanish
Default : No
Forced : No

Text #1
ID : 4
Format : UTF-8
Codec ID : S_TEXT/UTF8
Codec ID/Info : UTF-8 Plain Text
Language : Spanish
Default : Yes
Forced : No

Text #2
ID : 5
Format : UTF-8
Codec ID : S_TEXT/UTF8
Codec ID/Info : UTF-8 Plain Text
Language : English
Default : No
Forced : No

Text #3
ID : 6
Format : UTF-8
Codec ID : S_TEXT/UTF8
Codec ID/Info : UTF-8 Plain Text
Language : French
Default : No
Forced : No
Imagen
Imagen
Imagen
Avatar de Usuario
FrOnkY
 
Mensajes: 917
Temas: 227
Registrado: 16 Oct 2012, 13:02

Re: Lonesome Ghosts (Burt Gillett, 1937) HQ 720p Dual SE

Notapor jail » 06 May 2015, 17:06

¡Ayayayay!, ¿esto qué es?
Gracias, Fronky.
jail
 
Mensajes: 4155
Temas: 6
Registrado: 18 Oct 2012, 13:34

Re: Lonesome Ghosts (Burt Gillett, 1937) HQ 720p Dual SE

Notapor FrOnkY » 06 May 2015, 17:47

El originy.

Casi medio siglo después se llevó a cabo una versión encarneyhuesop que goza de un enorme prestigio entre los estudioshosh...


Imagen
Imagen
Imagen
Avatar de Usuario
FrOnkY
 
Mensajes: 917
Temas: 227
Registrado: 16 Oct 2012, 13:02

Re: Lonesome Ghosts (Burt Gillett, 1937) HQ 720p Dual SE

Notapor yojimbo » 06 May 2015, 17:49

También me apunto, FrOnkY.

Muchas gracias.
Avatar de Usuario
yojimbo
 
Mensajes: 6795
Temas: 17
Registrado: 18 Oct 2012, 12:25

Re: Lonesome Ghosts (Burt Gillett, 1937) HQ 720p Dual SE

Notapor lluis600 » 06 May 2015, 18:11

Gracias por la aportación, FrOnkY :genial:
Avatar de Usuario
lluis600
 
Mensajes: 942
Registrado: 16 Oct 2012, 17:39

Re: Lonesome Ghosts (Burt Gillett, 1937) HQ 720p Dual SE

Notapor jail » 06 May 2015, 22:41

FrOnkY escribió:El originy.

Casi medio siglo después se llevó a cabo una versión encarneyhuesop que goza de un enorme prestigio entre los estudioshosh...


Imagen

¿El padre de Bill Murray?
jail
 
Mensajes: 4155
Temas: 6
Registrado: 18 Oct 2012, 13:34

Re: Lonesome Ghosts (Burt Gillett, 1937) HQ 720p Dual SE

Notapor repopo » 07 May 2015, 00:34

Joyita, Fronky... ¡joyita!
repopo
 
Mensajes: 7
Registrado: 11 Ago 2013, 10:13

Re: Lonesome Ghosts (Burt Gillett, 1937) HQ 720p Dual SE

Notapor jomime » 09 May 2015, 07:25

Imagen
Avatar de Usuario
jomime
 
Mensajes: 147
Temas: 88
Registrado: 16 Oct 2012, 13:41


Volver a Cortos Animación

¿Quién está conectado?

Usuarios navegando por este Foro: No hay usuarios registrados visitando el Foro y 1 invitado