Grand Slam (Giuliano Montaldo, 1967) WEB-DLRip 1080p Dual SE

Diamantes a gogo / Ad ogni costo

Ripeos nuevos y/o antiguos, de pelis ya posteadas.

Moderador: mifune

Reglas del Foro
Las puntuaciones están desactivadas en este subforo. Para puntuar debéis ir a cada hilo inicial en sus respectivos foros. Disculpad las molestias.
Responder
Avatar de Usuario
Juramentado
 
Mensajes: 1785
Registrado: 16 Oct 2012 20:58
Agradecido : 550 veces
Agradecimiento recibido: 636 veces

Italia Grand Slam (Giuliano Montaldo, 1967) WEB-DLRip 1080p Dual SE

Mensaje por Juramentado » 27 Mar 2022 11:39

Grand Slam / Diamantes a gogo / Ad ogni costo
(Giuliano Montaldo, 1967)


Filmaffinity

IMDb

Imagen


Sinopsis :

James Anders, un tranquilo profesor estadounidense planea con su viejo amigo Mark Milford, dueño de un club nocturno de Nueva York,
apoderarse de los diamantes que se guardan en la caja fuerte de la Sociedad Diamantífera de Río de Janeiro.

Imagen
Imagen
Imagen


After retirement, Professor James Anders presents criminal Mark Milford an elaborate plan to rob a diamond company in Brazil with a crew of professionals.
The men assemble in Rio de Janeiro and run in to an unanticipated problem: a new alarm system called Grand Slam 70.

Imagen
Imagen
Imagen
Imagen


Video y audio inglés procedentes del WEB-DL original.

Audio y subtitulos español adaptados del DVDrip de DCINE (muchas gracias)
Doblajes:

Español: El del estreno en cines de 1969, del ripeo de laxa de una emisión por 8Madrid, la copia emitida es horrible, es la misma que usaron por Antena3 en los 90-2000.

Subtítulos:

Español: Los completos son una traducción del doblaje inglés y los forzados, gracias a carnicerito, se ha adaptado las frases que faltan en el doblaje español para los parches con el doblaje italiano.



DURACIÓN 114 min
PAÍS Coproducción Italia-España-Alemania del Oeste (RFA)
DIRECTOR Giuliano Montaldo
GUIÓN Paolo Bianchini, Augusto Caminito, Mino Roli, Marcello Coscia, José Antonio de la Loma, Marcello Fondato
MÚSICA Ennio Morricone
FOTOGRAFÍA Antonio Macasoli
REPARTO Janet Leigh, Robert Hoffmann, Klaus Kinski, Riccardo Cucciolla, George Rigaud, Adolfo Celi, Edward G. Robinson


PRODUCTORA Constantin Film, Coral P.C, Jolly Film


Datos Técnicos:
Spoiler:
General
Unique ID : 8557642461542482019550206319114372787 (0x670245942A48285C7A2F71D27A8C6B3)
Complete name : C:\Grand.Slam AKA Diamantes a gogo AKA Ad ogni costo.1967.1080p.WEB-DL.DDP2.0.H.264-ISA.mkv
Format : Matroska
Format version : Version 4
File size : 7.80 GiB
Duration : 1 h 54 min
Overall bit rate : 9 747 kb/s
Movie name : Grand Slam (1967)
Encoded date : UTC 2022-03-25 20:04:19
Writing application : mkvmerge v65.0.0 ('Too Much') 64-bit
Writing library : libebml v1.4.2 + libmatroska v1.6.4
IMDB : tt0062636
TMDB : movie/76851

Video
ID : 1
Format : AVC
Format/Info : Advanced Video Codec
Format profile : High@L4
Format settings : CABAC / 4 Ref Frames
Format settings, CABAC : Yes
Format settings, Reference frames : 4 frames
Codec ID : V_MPEG4/ISO/AVC
Duration : 1 h 54 min
Bit rate mode : Constant
Bit rate : 9 329 kb/s
Nominal bit rate : 10 000 kb/s
Width : 1 920 pixels
Height : 816 pixels
Display aspect ratio : 2.35:1
Frame rate mode : Constant
Frame rate : 25.000 FPS
Color space : YUV
Chroma subsampling : 4:2:0
Bit depth : 8 bits
Scan type : Progressive
Bits/(Pixel*Frame) : 0.238
Stream size : 7.47 GiB (96%)
Default : Yes
Forced : No
Color range : Limited
Color primaries : BT.709
Transfer characteristics : BT.709
Matrix coefficients : BT.709

Audio #1
ID : 2
Format : E-AC-3
Format/Info : Enhanced AC-3
Commercial name : Dolby Digital Plus
Codec ID : A_EAC3
Duration : 1 h 54 min
Bit rate mode : Constant
Bit rate : 224 kb/s
Channel(s) : 2 channels
Channel layout : L R
Sampling rate : 48.0 kHz
Frame rate : 31.250 FPS (1536 SPF)
Compression mode : Lossy
Stream size : 184 MiB (2%)
Language : English
Service kind : Complete Main
Default : Yes
Forced : No

Audio #2
ID : 3
Format : AC-3
Format/Info : Audio Coding 3
Commercial name : Dolby Digital
Codec ID : A_AC3
Duration : 1 h 54 min
Bit rate mode : Constant
Bit rate : 192 kb/s
Channel(s) : 2 channels
Channel layout : L R
Sampling rate : 48.0 kHz
Frame rate : 31.250 FPS (1536 SPF)
Compression mode : Lossy
Stream size : 157 MiB (2%)
Title : spa Doblaje Cines 1969
Language : Spanish
Service kind : Complete Main
Default : No
Forced : No

Text #1
ID : 4
Format : UTF-8
Codec ID : S_TEXT/UTF8
Codec ID/Info : UTF-8 Plain Text
Duration : 38 min 32 s
Bit rate : 2 b/s
Count of elements : 15
Stream size : 627 Bytes (0%)
Title : spa forzados (Adaptación ITA dialogues por carnicerito)
Language : Spanish
Default : No
Forced : No

Text #2
ID : 5
Format : UTF-8
Codec ID : S_TEXT/UTF8
Codec ID/Info : UTF-8 Plain Text
Duration : 1 h 51 min
Bit rate : 18 b/s
Count of elements : 471
Stream size : 15.2 KiB (0%)
Title : spa (traducción ENG dialogues)
Language : Spanish
Default : No
Forced : No

Menu
00:00:00.000 : en:1
00:09:59.431 : en:2
00:19:59.431 : en:3
00:29:59.431 : en:4
00:39:59.431 : en:5
00:49:59.431 : en:6
00:59:59.431 : en:7
01:09:59.431 : en:8
01:19:59.431 : en:9
01:29:59.431 : en:10
01:39:59.431 : en:11
01:53:07.431 : en:12





Enlace:

eD2K link Grand.Slam AKA Diamantes a gogo AKA Ad ogni costo.1967.1080p.WEB-DL.DDP2.0.H.264-ISA.mkv [7.80 Gb] 


Enlace DD disponible 1 semana:

Otros ripeos

viewtopic.php?f=55&t=5316

Avatar de Usuario
Guiller3
 
Mensajes: 1163
Registrado: 12 May 2013 03:58
Ubicación: Si eres mujer, búscame en tu corazón. Si eres hombre, me hallarás en tu cabeza.
Agradecido : 537 veces
Agradecimiento recibido: 767 veces

Re: Grand Slam (Giuliano Montaldo, 1967) WEB-DLRip 1080p Dual SE

Mensaje por Guiller3 » 27 Mar 2022 17:18

A, Giuliano Montaldo, lo recuerdo muy gratamente por sus películas, "Sacco e Vanzetti" y "Giordano Bruno". Así que me animo a ver ésta película con la que intenta hacer algo que se asemeje a la legendaria, "Rififi". El reparto es internacional. P.D.- ¡Creo que el ridículo título que le pusieron en España no motive a nadie!

Gracias, Juramentado.


Imagen

Avatar de Usuario
juannavarrete
 
Mensajes: 3262
Registrado: 16 Oct 2012 15:21
Ubicación: En la frontera de la webtern
Agradecido : 11 veces
Agradecimiento recibido: 3648 veces

Re: Grand Slam (Giuliano Montaldo, 1967) WEB-DLRip 1080p Dual SE

Mensaje por juannavarrete » 27 Mar 2022 18:18

Gracias juramentado.
Un abrazo.
Es necesario para su distribución, dejar las descargas obtenidas en el incoming.
(Lo que es bueno para uno, es bueno para todos)

quetzalcoatl67
 
Mensajes: 155
Registrado: 18 Oct 2012 08:20
Agradecido : 35 veces
Agradecimiento recibido: 17 veces
Contactar:

Re: Grand Slam (Giuliano Montaldo, 1967) WEB-DLRip 1080p Dual SE

Mensaje por quetzalcoatl67 » 28 Mar 2022 16:33

Muchas gracias a Juramentado.

NACHO
 
Mensajes: 418
Registrado: 19 Oct 2012 22:33
Agradecido : 625 veces
Agradecimiento recibido: 258 veces

Re: Grand Slam (Giuliano Montaldo, 1967) WEB-DLRip 1080p Dual SE

Mensaje por NACHO » 29 Mar 2022 21:29

Muchas gracias, Juramentado

quetzalcoatl67
 
Mensajes: 155
Registrado: 18 Oct 2012 08:20
Agradecido : 35 veces
Agradecimiento recibido: 17 veces
Contactar:

Re: Grand Slam (Giuliano Montaldo, 1967) WEB-DLRip 1080p Dual SE

Mensaje por quetzalcoatl67 » 31 Mar 2022 21:07

Película muy al uso de robos y atracos; bastante entretenida y con un muy buen ritmo en toda la trama. Interpretaciones decentes, aunque no destacables. Excelente toda la escena del robo, y como no, un giro final notable.

Avatar de Usuario
AFR
 
Mensajes: 5
Registrado: 22 Ene 2022 18:22
Agradecido : 13 veces
Agradecimiento recibido: 2 veces

Re: Grand Slam (Giuliano Montaldo, 1967) WEB-DLRip 1080p Dual SE

Mensaje por AFR » 05 Abr 2022 20:25

Linda peli. Muchas gracias Juramentado, DCINE y carnicerito. :genial:

Avatar de Usuario
Forrest Gump
 
Mensajes: 1589
Registrado: 22 Oct 2012 09:29
Ubicación: Al este del paraíso.
Agradecido : 3571 veces
Agradecimiento recibido: 1054 veces

Re: Grand Slam (Giuliano Montaldo, 1967) WEB-DLRip 1080p Dual SE

Mensaje por Forrest Gump » 25 May 2022 08:37

BDRip 1080p Freeleech en KG (por casi 11 horas más): https://karagarga.in/details.php?id=305993

:hi:
Johnny: How many men have you forgotten?
Vienna: As many women as you've remembered.

elquetuquieras
 
Mensajes: 469
Registrado: 16 Oct 2012 21:14
Agradecido : 60 veces
Agradecimiento recibido: 2216 veces

Re: Grand Slam (Giuliano Montaldo, 1967) WEB-DLRip 1080p Dual SE

Mensaje por elquetuquieras » 30 May 2022 15:19

Os dejo este BDRip MKV dual codec h265, tiene los sub forzados que están sincronizados y los completos que estos no están sincronizados.

Elink en DD por unos días.

https://mega.nz/folder/J1wy3Cyb#2tXR_pvvPZEF93NQzDwFqw

Que la disfruteis.

Avatar de Usuario
yojimbo
 
Mensajes: 12267
Registrado: 18 Oct 2012 14:25
Agradecido : 11901 veces
Agradecimiento recibido: 3453 veces

Re: Grand Slam (Giuliano Montaldo, 1967) WEB-DLRip 1080p Dual SE

Mensaje por yojimbo » 31 May 2022 13:50

Muchas gracias, Juramentado, DCINE, carnicerito y elquetuquieras.

Responder

Volver a “Cine de Reestreno”