Il giorno più corto (Sergio Corbucci, 1963) WEB-DL 1080p VOSE

El día más corto

Ripeos nuevos y/o antiguos, de pelis ya posteadas.

Moderador: mifune

Reglas del Foro
Las puntuaciones están desactivadas en este subforo. Para puntuar debéis ir a cada hilo inicial en sus respectivos foros. Disculpad las molestias.
Responder
Avatar de Usuario
jotarapidup
 
Mensajes: 1147
Registrado: 02 Oct 2012 21:05
Ubicación: Valdivia, Chile.
Agradecido : 396 veces
Agradecimiento recibido: 987 veces

Italia Il giorno più corto (Sergio Corbucci, 1963) WEB-DL 1080p VOSE

Mensaje por jotarapidup » 03 May 2021 02:11

HILO ANTERIOR

Imagen

EL DÍA MÁS CORTO

IMDB

Parodia italiana de la superproducción estadounidense sobre el desembarco de Normandía ("El día más largo", 1962) pero adaptada a la I Guerra Mundial. Los protagonistas son dos tipos muy torpes que se convierten en héroes sin buscarlo. (FILMAFFINITY)

Título original
Il giorno più corto

Año
1963

Duración
91 min.

País
Italia

Dirección
Sergio Corbucci

Guion
Giorgio Arlorio, Bruno Corbucci, Giovanni Grimaldi. Historia: Sandro Continenza

Música
Piero Piccioni

Fotografía
Enzo Barboni (B&W)

Reparto
Ciccio Ingrassia, Franco Franchi, Virna Lisi, Gino Cervi, Walter Chiari, Raimondo Vianello, Sylva Koscina, Renato Salvatori, Rossella Como, Totò, Annie Girardot, Ugo Tognazzi, Eduardo De Filippo,

Productora
Cinecompar, Titanus

Género
Comedia | Parodia. I Guerra Mundial

Imagen

Imagen

Imagen

Imagen

Imagen

Imagen

Imagen

Código: Seleccionar todo

General
Unique ID                                : 157371796105512329154247780429103405075 (0x7664B4988347DD0DF0183B44C0C89813)
Complete name                            : C:\Users\Downloads\eMule\Incoming\Il giorno più corto (1963).WEB-DL.1080p.x264.(English.Spanish.French.and.other.subtitles).mkv
Format                                   : Matroska
Format version                           : Version 4
File size                                : 4.74 GiB
Duration                                 : 1 h 30 min
Overall bit rate mode                    : Variable
Overall bit rate                         : 7 480 kb/s
Encoded date                             : UTC 2021-04-29 05:04:14
Writing application                      : mkvmerge v56.0.0 ('Strasbourg / St. Denis') 64-bit
Writing library                          : libebml v1.4.2 + libmatroska v1.6.4

Video
ID                                       : 1
Format                                   : AVC
Format/Info                              : Advanced Video Codec
Format profile                           : Main@L4
Format settings                          : CABAC / 3 Ref Frames
Format settings, CABAC                   : Yes
Format settings, Reference frames        : 3 frames
Codec ID                                 : V_MPEG4/ISO/AVC
Duration                                 : 1 h 30 min
Bit rate mode                            : Variable
Bit rate                                 : 7 500 kb/s
Maximum bit rate                         : 11.2 Mb/s
Width                                    : 1 920 pixels
Height                                   : 1 080 pixels
Display aspect ratio                     : 16:9
Frame rate mode                          : Constant
Frame rate                               : 24.000 FPS
Color space                              : YUV
Chroma subsampling                       : 4:2:0
Bit depth                                : 8 bits
Scan type                                : Progressive
Bits/(Pixel*Frame)                       : 0.151
Stream size                              : 4.65 GiB (98%)
Writing library                          : x264 core 148 r2722 1b0121b
Encoding settings                        : cabac=1 / ref=3 / deblock=1:0:0 / analyse=0x1:0x111 / me=umh / subme=10 / psy=1 / psy_rd=1.00:0.00 / mixed_ref=1 / me_range=24 / chroma_me=1 / trellis=2 / 8x8dct=0 / cqm=0 / deadzone=21,11 / fast_pskip=1 / chroma_qp_offset=-2 / threads=6 / lookahead_threads=1 / sliced_threads=0 / nr=0 / decimate=1 / interlaced=0 / bluray_compat=0 / stitchable=1 / constrained_intra=0 / bframes=2 / b_pyramid=0 / b_adapt=2 / b_bias=0 / direct=3 / weightb=1 / open_gop=0 / weightp=2 / keyint=250 / keyint_min=24 / scenecut=0 / intra_refresh=0 / rc_lookahead=48 / rc=2pass / mbtree=1 / bitrate=7500 / ratetol=1.0 / qcomp=0.50 / qpmin=6 / qpmax=51 / qpstep=4 / cplxblur=20.0 / qblur=0.5 / vbv_maxrate=11250 / vbv_bufsize=15000 / nal_hrd=vbr / filler=0 / ip_ratio=1.40 / aq=1:1.00
Default                                  : Yes
Forced                                   : No

Audio
ID                                       : 2
Format                                   : E-AC-3
Format/Info                              : Enhanced AC-3
Commercial name                          : Dolby Digital Plus
Codec ID                                 : A_EAC3
Duration                                 : 1 h 30 min
Bit rate mode                            : Constant
Bit rate                                 : 128 kb/s
Channel(s)                               : 2 channels
Channel layout                           : L R
Sampling rate                            : 48.0 kHz
Frame rate                               : 31.250 FPS (1536 SPF)
Compression mode                         : Lossy
Stream size                              : 83.0 MiB (2%)
Language                                 : Italian
Service kind                             : Complete Main
Default                                  : Yes
Forced                                   : No

Text #1
ID                                       : 3
Format                                   : UTF-8
Codec ID                                 : S_TEXT/UTF8
Codec ID/Info                            : UTF-8 Plain Text
Duration                                 : 1 h 29 min
Bit rate                                 : 62 b/s
Count of elements                        : 1329
Stream size                              : 40.9 KiB (0%)
Title                                    : Italiano (SDH)
Language                                 : Italian
Default                                  : No
Forced                                   : No

Text #2
ID                                       : 4
Format                                   : UTF-8
Codec ID                                 : S_TEXT/UTF8
Codec ID/Info                            : UTF-8 Plain Text
Duration                                 : 1 h 30 min
Bit rate                                 : 60 b/s
Count of elements                        : 1176
Stream size                              : 40.2 KiB (0%)
Title                                    : Čeština
Language                                 : Czech
Default                                  : No
Forced                                   : No

Text #3
ID                                       : 5
Format                                   : UTF-8
Codec ID                                 : S_TEXT/UTF8
Codec ID/Info                            : UTF-8 Plain Text
Duration                                 : 1 h 30 min
Bit rate                                 : 58 b/s
Count of elements                        : 1178
Stream size                              : 38.8 KiB (0%)
Title                                    : Dansk
Language                                 : Danish
Default                                  : No
Forced                                   : No

Text #4
ID                                       : 6
Format                                   : UTF-8
Codec ID                                 : S_TEXT/UTF8
Codec ID/Info                            : UTF-8 Plain Text
Duration                                 : 1 h 30 min
Bit rate                                 : 61 b/s
Count of elements                        : 1087
Stream size                              : 40.5 KiB (0%)
Title                                    : Deutsch
Language                                 : German
Default                                  : No
Forced                                   : No

Text #5
ID                                       : 7
Format                                   : UTF-8
Codec ID                                 : S_TEXT/UTF8
Codec ID/Info                            : UTF-8 Plain Text
Duration                                 : 1 h 30 min
Bit rate                                 : 112 b/s
Count of elements                        : 1181
Stream size                              : 74.8 KiB (0%)
Title                                    : Ελληνικά
Language                                 : Greek
Default                                  : No
Forced                                   : No

Text #6
ID                                       : 8
Format                                   : UTF-8
Codec ID                                 : S_TEXT/UTF8
Codec ID/Info                            : UTF-8 Plain Text
Duration                                 : 1 h 30 min
Bit rate                                 : 59 b/s
Count of elements                        : 1177
Stream size                              : 39.5 KiB (0%)
Title                                    : English
Language                                 : English
Default                                  : No
Forced                                   : No

Text #7
ID                                       : 9
Format                                   : UTF-8
Codec ID                                 : S_TEXT/UTF8
Codec ID/Info                            : UTF-8 Plain Text
Duration                                 : 1 h 30 min
Bit rate                                 : 67 b/s
Count of elements                        : 1208
Stream size                              : 45.0 KiB (0%)
Title                                    : Español
Language                                 : Spanish
Default                                  : No
Forced                                   : No

Text #8
ID                                       : 10
Format                                   : UTF-8
Codec ID                                 : S_TEXT/UTF8
Codec ID/Info                            : UTF-8 Plain Text
Duration                                 : 1 h 30 min
Bit rate                                 : 64 b/s
Count of elements                        : 1181
Stream size                              : 42.7 KiB (0%)
Title                                    : Suomi
Language                                 : Finnish
Default                                  : No
Forced                                   : No

Text #9
ID                                       : 11
Format                                   : UTF-8
Codec ID                                 : S_TEXT/UTF8
Codec ID/Info                            : UTF-8 Plain Text
Duration                                 : 1 h 30 min
Bit rate                                 : 64 b/s
Count of elements                        : 1188
Stream size                              : 42.8 KiB (0%)
Title                                    : Français
Language                                 : French
Default                                  : No
Forced                                   : No

Text #10
ID                                       : 12
Format                                   : UTF-8
Codec ID                                 : S_TEXT/UTF8
Codec ID/Info                            : UTF-8 Plain Text
Duration                                 : 1 h 30 min
Bit rate                                 : 55 b/s
Count of elements                        : 1181
Stream size                              : 36.8 KiB (0%)
Title                                    : Hrvatski
Language                                 : Croatian
Default                                  : No
Forced                                   : No

Text #11
ID                                       : 13
Format                                   : UTF-8
Codec ID                                 : S_TEXT/UTF8
Codec ID/Info                            : UTF-8 Plain Text
Duration                                 : 1 h 30 min
Bit rate                                 : 65 b/s
Count of elements                        : 1180
Stream size                              : 43.5 KiB (0%)
Title                                    : Magyar
Language                                 : Hungarian
Default                                  : No
Forced                                   : No

Text #12
ID                                       : 14
Format                                   : UTF-8
Codec ID                                 : S_TEXT/UTF8
Codec ID/Info                            : UTF-8 Plain Text
Duration                                 : 1 h 30 min
Bit rate                                 : 60 b/s
Count of elements                        : 1170
Stream size                              : 40.1 KiB (0%)
Title                                    : Norsk Bokmål
Language                                 : Norwegian Bokmal
Default                                  : No
Forced                                   : No

Text #13
ID                                       : 15
Format                                   : UTF-8
Codec ID                                 : S_TEXT/UTF8
Codec ID/Info                            : UTF-8 Plain Text
Duration                                 : 1 h 30 min
Bit rate                                 : 60 b/s
Count of elements                        : 1167
Stream size                              : 40.0 KiB (0%)
Title                                    : Nederlands
Language                                 : Dutch
Default                                  : No
Forced                                   : No

Text #14
ID                                       : 16
Format                                   : UTF-8
Codec ID                                 : S_TEXT/UTF8
Codec ID/Info                            : UTF-8 Plain Text
Duration                                 : 1 h 30 min
Bit rate                                 : 61 b/s
Count of elements                        : 1178
Stream size                              : 40.8 KiB (0%)
Title                                    : Polski
Language                                 : Polish
Default                                  : No
Forced                                   : No

Text #15
ID                                       : 17
Format                                   : UTF-8
Codec ID                                 : S_TEXT/UTF8
Codec ID/Info                            : UTF-8 Plain Text
Duration                                 : 1 h 30 min
Bit rate                                 : 61 b/s
Count of elements                        : 1183
Stream size                              : 40.6 KiB (0%)
Title                                    : Português
Language                                 : Portuguese
Default                                  : No
Forced                                   : No

Text #16
ID                                       : 18
Format                                   : UTF-8
Codec ID                                 : S_TEXT/UTF8
Codec ID/Info                            : UTF-8 Plain Text
Duration                                 : 1 h 30 min
Bit rate                                 : 62 b/s
Count of elements                        : 1183
Stream size                              : 41.2 KiB (0%)
Title                                    : Română
Language                                 : Romanian
Default                                  : No
Forced                                   : No

Text #17
ID                                       : 19
Format                                   : UTF-8
Codec ID                                 : S_TEXT/UTF8
Codec ID/Info                            : UTF-8 Plain Text
Duration                                 : 1 h 30 min
Bit rate                                 : 90 b/s
Count of elements                        : 1181
Stream size                              : 59.8 KiB (0%)
Title                                    : Русский
Language                                 : Russian
Default                                  : No
Forced                                   : No

Text #18
ID                                       : 20
Format                                   : UTF-8
Codec ID                                 : S_TEXT/UTF8
Codec ID/Info                            : UTF-8 Plain Text
Duration                                 : 1 h 30 min
Bit rate                                 : 57 b/s
Count of elements                        : 1135
Stream size                              : 37.8 KiB (0%)
Title                                    : Svenska
Language                                 : Swedish
Default                                  : No
Forced                                   : No

Text #19
ID                                       : 21
Format                                   : UTF-8
Codec ID                                 : S_TEXT/UTF8
Codec ID/Info                            : UTF-8 Plain Text
Duration                                 : 1 h 30 min
Bit rate                                 : 61 b/s
Count of elements                        : 1170
Stream size                              : 40.5 KiB (0%)
Title                                    : Türkçe
Language                                 : Turkish
Default                                  : No
Forced                                   : No


Subido por handkesoul a KG. La copia lleva subtítulos en español y otros idiomas incluidos en el contenedor.
Desconfiad de las personas que nunca ríen, no son personas serias. (Julio César)

Avatar de Usuario
OCangaceiro
 
Mensajes: 268
Registrado: 29 Ene 2016 04:10
Agradecido : 586 veces
Agradecimiento recibido: 556 veces

Re: Il giorno più corto (Sergio Corbucci, 1963) WEB-DL 1080p VOSE

Mensaje por OCangaceiro » 03 May 2021 04:27

Gracias por la peli. Creo que hay en la mula una versión en castellano, sería interesante si se pudiese extraer el audio y tener un dual. :)

rdeespana
 
Mensajes: 905
Registrado: 06 Dic 2012 03:30
Agradecido : 3539 veces
Agradecimiento recibido: 629 veces

Re: Il giorno più corto (Sergio Corbucci, 1963) WEB-DL 1080p VOSE

Mensaje por rdeespana » 03 May 2021 10:15

OCangaceiro escribió:
03 May 2021 04:27
Gracias por la peli. Creo que hay en la mula una versión en castellano, sería interesante si se pudiese extraer el audio y tener un dual. :)

Aparte de que el doblaje quita bastante de la (no excesiva) gracia de los dialogos de Franco y Ciccio, la VE tiene algunas escenas (en especial las de Vianello haciendo de oficial alemán, o austríaco, ahora no me acuerdo) notablemente "retocadas". Por supuesto, si alguien se anima, se puede intentar...

Avatar de Usuario
eddelon
 
Mensajes: 2282
Registrado: 28 Oct 2012 01:05
Ubicación: Buenos Aires,Argentina
Agradecido : 2235 veces
Agradecimiento recibido: 385 veces

Re: Il giorno più corto (Sergio Corbucci, 1963) WEB-DL 1080p VOSE

Mensaje por eddelon » 03 May 2021 12:43

GRAZIE, JOTA!!! :aplauso:

Responder

Volver a “Cine de Reestreno”