Assunta Spina (Mario Mattoli, 1948) WEB-DL 1080p VOSE

Ripeos nuevos y/o antiguos, de pelis ya posteadas.

Moderador: mifune

Reglas del Foro
Las puntuaciones están desactivadas en este subforo. Para puntuar debéis ir a cada hilo inicial en sus respectivos foros. Disculpad las molestias.
Responder
Avatar de Usuario
jotarapidup
 
Mensajes: 1147
Registrado: 02 Oct 2012 21:05
Ubicación: Valdivia, Chile.
Agradecido : 396 veces
Agradecimiento recibido: 987 veces

Italia Assunta Spina (Mario Mattoli, 1948) WEB-DL 1080p VOSE

Mensaje por jotarapidup » 04 May 2021 02:33

HILO ANTERIOR

Imagen

ASSUNTA SPINA

IMDB

Nápoles, principios del siglo pasado. Assunta Spina, una mujer de clase popular tiene una tormentosa relación con Michele, el cual en un ataque de celos llega a cortarle la cara. Mientras su amante es envíado a la cárcel, Assunta conoce a un funcionario del tribunal que le ofrece ayuda. (FILMAFFINITY)

Título original
Assunta Spina

Año
1948

Duración
91 min.

País
Italia

Dirección
Mario Mattoli

Guion
Eduardo De Filippo, Gino Capriolo . Obra: Salvatore Di Giacomo

Música
Renzo Rossellini

Fotografía
Gábor Pogány (B&W)

Reparto
Anna Magnani, Antonio Centa, Maria Donini, Aldo Bufi Landi, Margherita Pisani, Giacomo Furia, Carla Ferraioli, Ugo D'Alessio, Aldo Giuffrè, Eduardo De Filippo, Titina de Filippo

Productora
Ora Film

Género
Drama

Imagen

Imagen

Imagen

Imagen

Imagen

Imagen

Código: Seleccionar todo

General
Unique ID                                : 109075086814475963910398182869083354054 (0x520F18FB8B60E66214C7142A17B3F3C6)
Complete name                            : C:\Users\Downloads\eMule\Incoming\Assunta Spina (1948).WEB-DL.1080p.x264.(English.French.Spanish.Subtitles).mkv
Format                                   : Matroska
Format version                           : Version 4
File size                                : 5.31 GiB
Duration                                 : 1 h 16 min
Overall bit rate                         : 9 987 kb/s
Movie name                               : Assunta Spina / Scarred (1948)
Encoded date                             : UTC 2021-04-18 22:28:09
Writing application                      : mkvmerge v56.1.0 ('My Friend') 64-bit
Writing library                          : libebml v1.4.2 + libmatroska v1.6.4
Cover                                    : Yes
Attachments                              : cover.jpg

Video
ID                                       : 1
Format                                   : AVC
Format/Info                              : Advanced Video Codec
Format profile                           : High@L4
Format settings                          : CABAC / 4 Ref Frames
Format settings, CABAC                   : Yes
Format settings, Reference frames        : 4 frames
Codec ID                                 : V_MPEG4/ISO/AVC
Duration                                 : 1 h 16 min
Bit rate mode                            : Constant
Bit rate                                 : 10 000 kb/s
Width                                    : 1 440 pixels
Height                                   : 1 080 pixels
Display aspect ratio                     : 4:3
Frame rate mode                          : Constant
Frame rate                               : 25.000 FPS
Color space                              : YUV
Chroma subsampling                       : 4:2:0
Bit depth                                : 8 bits
Scan type                                : Progressive
Bits/(Pixel*Frame)                       : 0.257
Stream size                              : 5.19 GiB (98%)
Language                                 : Italian
Default                                  : Yes
Forced                                   : No
Color range                              : Limited
Color primaries                          : BT.709
Transfer characteristics                 : BT.709
Matrix coefficients                      : BT.709

Audio
ID                                       : 2
Format                                   : E-AC-3
Format/Info                              : Enhanced AC-3
Commercial name                          : Dolby Digital Plus
Codec ID                                 : A_EAC3
Duration                                 : 1 h 16 min
Bit rate mode                            : Constant
Bit rate                                 : 224 kb/s
Channel(s)                               : 2 channels
Channel layout                           : L R
Sampling rate                            : 48.0 kHz
Frame rate                               : 31.250 FPS (1536 SPF)
Compression mode                         : Lossy
Delay relative to video                  : 16 ms
Stream size                              : 122 MiB (2%)
Language                                 : Italian
Service kind                             : Complete Main
Default                                  : Yes
Forced                                   : No

Text #1
ID                                       : 3
Format                                   : UTF-8
Codec ID                                 : S_TEXT/UTF8
Codec ID/Info                            : UTF-8 Plain Text
Duration                                 : 1 h 15 min
Bit rate                                 : 66 b/s
Count of elements                        : 942
Stream size                              : 36.9 KiB (0%)
Language                                 : English
Default                                  : Yes
Forced                                   : No

Text #2
ID                                       : 4
Format                                   : UTF-8
Codec ID                                 : S_TEXT/UTF8
Codec ID/Info                            : UTF-8 Plain Text
Duration                                 : 1 h 13 min
Bit rate                                 : 70 b/s
Count of elements                        : 926
Stream size                              : 38.3 KiB (0%)
Language                                 : Spanish
Default                                  : No
Forced                                   : No

Text #3
ID                                       : 5
Format                                   : UTF-8
Codec ID                                 : S_TEXT/UTF8
Codec ID/Info                            : UTF-8 Plain Text
Duration                                 : 1 h 13 min
Bit rate                                 : 76 b/s
Count of elements                        : 943
Stream size                              : 41.4 KiB (0%)
Language                                 : French
Default                                  : No
Forced                                   : No

Menu
00:00:00.000                             : it: 1. Lo sfregio
00:06:02.000                             : it: 2. Il processo
00:11:54.000                             : it: 3. Assunta Spina
00:16:56.000                             : it: 4. Don Federico
00:22:52.000                             : it: 5. La stireria
00:29:30.000                             : it: 6. Spezzare le catene
00:37:02.000                             : it: 7. Michele
00:43:04.000                             : it: 8. S. Gennaro
00:54:10.000                             : it: 9. Il biglietto
00:59:22.000                             : it:10. Don Emilia
01:08:10.000                             : it:11. Una visita inaspettata
01:14:14.000                             : it:12. Il sacrificio


Compartida por Darleg en KG. La copia lleva subtítulos en español, francés e inglés.
Desconfiad de las personas que nunca ríen, no son personas serias. (Julio César)

Avatar de Usuario
tonapar1
 
Mensajes: 5651
Registrado: 16 Oct 2012 20:19
Agradecido : 1124 veces
Agradecimiento recibido: 1950 veces

Re: Assunta Spina (Mario Mattoli, 1948) WEB-DL 1080p VOSE

Mensaje por tonapar1 » 04 May 2021 11:51

Muchas gracias por el ripeo y los subs a darleg y a jotarapidup. Un saludo a ambos. Mejoro copia

Avatar de Usuario
Graveland
 
Mensajes: 4368
Registrado: 22 Nov 2012 15:30
Agradecido : 2975 veces
Agradecimiento recibido: 3949 veces

Re: Assunta Spina (Mario Mattoli, 1948) WEB-DL 1080p VOSE

Mensaje por Graveland » 04 May 2021 12:40

Muchas gracias, jotarapidup y Darleg.

Avatar de Usuario
oestevez
 
Mensajes: 232
Registrado: 04 Oct 2012 12:56
Ubicación: Argentina
Agradecido : 83 veces
Agradecimiento recibido: 44 veces

Re: Assunta Spina (Mario Mattoli, 1948) WEB-DL 1080p VOSE

Mensaje por oestevez » 05 May 2021 17:54

Muchas gracias a todos.

Responder

Volver a “Cine de Reestreno”