Lo svitato (Carlo Lizzani, 1956) DVDRip VOSE

Ripeos nuevos y/o antiguos, de pelis ya posteadas.

Moderador: mifune

Reglas del Foro
Las puntuaciones están desactivadas en este subforo. Para puntuar debéis ir a cada hilo inicial en sus respectivos foros. Disculpad las molestias.
Responder
Avatar de Usuario
jotarapidup
 
Mensajes: 1147
Registrado: 02 Oct 2012 21:05
Ubicación: Valdivia, Chile.
Agradecido : 396 veces
Agradecimiento recibido: 987 veces

Italia Lo svitato (Carlo Lizzani, 1956) DVDRip VOSE

Mensaje por jotarapidup » 04 May 2021 03:05

HILO ANTERIOR

Imagen

LO SVITATO

IMDB

Achille es el chico de los recados en un periodico de Milán, que desea convertirse en un famoso periodista. (FILMAFFINITY)



Imagen

Imagen

Imagen

Imagen

Imagen

Código: Seleccionar todo

General
Unique ID                                : 34065879160699103635919649890852534362 (0x19A0D9845988813D11E732D42869F85A)
Complete name                            : C:\Users\Downloads\eMule\Incoming\Carlo Lizzani - Lo Svitato (1956).DVDRip.x265.AAC.(English.French.Spanish.Subtitles)-CFC.mkv
Format                                   : Matroska
Format version                           : Version 4
File size                                : 1.33 GiB
Duration                                 : 1 h 23 min
Overall bit rate                         : 2 269 kb/s
Encoded date                             : UTC 2021-05-03 23:10:50
Writing application                      : mkvmerge v50.0.0 ('Awakenings') 32-bit
Writing library                          : libebml v1.4.0 + libmatroska v1.6.2 / Lavf58.29.100

Video
ID                                       : 1
Format                                   : HEVC
Format/Info                              : High Efficiency Video Coding
Format profile                           : Main@L3@Main
Codec ID                                 : V_MPEGH/ISO/HEVC
Duration                                 : 1 h 23 min
Bit rate                                 : 2 101 kb/s
Width                                    : 720 pixels
Height                                   : 576 pixels
Display aspect ratio                     : 4:3
Frame rate mode                          : Constant
Frame rate                               : 25.000 FPS
Standard                                 : PAL
Color space                              : YUV
Chroma subsampling                       : 4:2:0
Bit depth                                : 8 bits
Bits/(Pixel*Frame)                       : 0.203
Stream size                              : 1.23 GiB (93%)
Writing library                          : x265 3.2.1+1-b5c86a64bbbe:[Windows][GCC 9.2.0][64 bit] 8bit+10bit+12bit
Encoding settings                        : cpuid=1049071 / frame-threads=2 / numa-pools=4 / wpp / no-pmode / no-pme / no-psnr / no-ssim / log-level=2 / input-csp=1 / input-res=720x576 / interlace=0 / total-frames=0 / level-idc=0 / high-tier=1 / uhd-bd=0 / ref=4 / no-allow-non-conformance / no-repeat-headers / annexb / no-aud / no-hrd / info / hash=0 / no-temporal-layers / open-gop / min-keyint=25 / keyint=250 / gop-lookahead=0 / bframes=4 / b-adapt=2 / b-pyramid / bframe-bias=0 / rc-lookahead=25 / lookahead-slices=0 / scenecut=40 / radl=0 / no-splice / no-intra-refresh / ctu=64 / min-cu-size=8 / no-rect / no-amp / max-tu-size=32 / tu-inter-depth=1 / tu-intra-depth=1 / limit-tu=0 / rdoq-level=2 / dynamic-rd=0.00 / no-ssim-rd / signhide / no-tskip / nr-intra=0 / nr-inter=0 / no-constrained-intra / no-strong-intra-smoothing / max-merge=3 / limit-refs=3 / limit-modes / me=3 / subme=3 / merange=57 / temporal-mvp / no-hme / weightp / no-weightb / no-analyze-src-pics / deblock=0:0 / sao / no-sao-non-deblock / rd=4 / selective-sao=4 / no-early-skip / rskip / no-fast-intra / no-tskip-fast / no-cu-lossless / no-b-intra / no-splitrd-skip / rdpenalty=0 / psy-rd=2.00 / psy-rdoq=1.00 / no-rd-refine / no-lossless / cbqpoffs=0 / crqpoffs=0 / rc=abr / bitrate=2100 / qcomp=0.60 / qpstep=4 / stats-write=0 / stats-read=2 / cplxblur=20.0 / qblur=0.5 / ipratio=1.40 / pbratio=1.30 / aq-mode=1 / aq-strength=1.00 / cutree / zone-count=0 / no-strict-cbr / qg-size=32 / no-rc-grain / qpmax=69 / qpmin=0 / no-const-vbv / sar=255 / sar-width / : / sar-height=16:15 / overscan=0 / videoformat=5 / range=0 / colorprim=5 / transfer=1 / colormatrix=6 / chromaloc=0 / display-window=0 / cll=0,0 / min-luma=0 / max-luma=255 / log2-max-poc-lsb=8 / vui-timing-info / vui-hrd-info / slices=1 / no-opt-qp-pps / no-opt-ref-list-length-pps / no-multi-pass-opt-rps / scenecut-bias=0.05 / no-opt-cu-delta-qp / no-aq-motion / no-hdr / no-hdr-opt / no-dhdr10-opt / no-idr-recovery-sei / analysis-reuse-level=5 / scale-factor=0 / refine-intra=0 / refine-inter=0 / refine-mv=1 / refine-ctu-distortion=0 / no-limit-sao / ctu-info=0 / no-lowpass-dct / refine-analysis-type=0 / copy-pic=1 / max-ausize-factor=1.0 / no-dynamic-refine / no-single-sei / no-hevc-aq / no-svt / no-field / qp-adaptation-range=1.00
Default                                  : Yes
Forced                                   : No
Color range                              : Limited
Color primaries                          : BT.601 PAL
Transfer characteristics                 : BT.709
Matrix coefficients                      : BT.601

Audio
ID                                       : 2
Format                                   : AAC LC
Format/Info                              : Advanced Audio Codec Low Complexity
Codec ID                                 : A_AAC-2
Duration                                 : 1 h 23 min
Bit rate                                 : 161 kb/s
Channel(s)                               : 2 channels
Channel layout                           : L R
Sampling rate                            : 48.0 kHz
Frame rate                               : 46.875 FPS (1024 SPF)
Compression mode                         : Lossy
Delay relative to video                  : -101 ms
Stream size                              : 96.2 MiB (7%)
Title                                    : Stereo
Language                                 : Italian
Default                                  : Yes
Forced                                   : No

Text #1
ID                                       : 3
Format                                   : VobSub
Muxing mode                              : zlib
Codec ID                                 : S_VOBSUB
Codec ID/Info                            : Picture based subtitle format used on DVDs
Duration                                 : 1 h 21 min
Bit rate                                 : 5 285 b/s
Count of elements                        : 997
Stream size                              : 3.07 MiB (0%)
Language                                 : Italian
Default                                  : No
Forced                                   : No

Text #2
ID                                       : 4
Format                                   : VobSub
Muxing mode                              : zlib
Codec ID                                 : S_VOBSUB
Codec ID/Info                            : Picture based subtitle format used on DVDs
Duration                                 : 1 h 20 min
Bit rate                                 : 4 962 b/s
Count of elements                        : 974
Stream size                              : 2.87 MiB (0%)
Language                                 : English
Default                                  : No
Forced                                   : No

Text #3
ID                                       : 5
Format                                   : UTF-8
Codec ID                                 : S_TEXT/UTF8
Codec ID/Info                            : UTF-8 Plain Text
Duration                                 : 1 h 23 min
Bit rate                                 : 70 b/s
Count of elements                        : 976
Stream size                              : 43.2 KiB (0%)
Title                                    : spanish
Language                                 : Spanish
Default                                  : Yes
Forced                                   : No

Menu
00:00:00.080                             : :Chapter 1
00:01:46.640                             : :Chapter 2
00:10:12.560                             : :Chapter 3
00:17:03.440                             : :Chapter 4
00:29:19.280                             : :Chapter 5
00:36:57.680                             : :Chapter 6
00:41:17.360                             : :Chapter 7
00:52:44.720                             : :Chapter 8
00:59:34.640                             : :Chapter 9
01:08:39.920                             : :Chapter 10

Ripeo propio x265 a partir del DVD compartido en TIK al cual le agregué los excelentes subtítulos en español de Vozidar y Carnicerito, para upgradear el avi que hay publicado.
Editado por Monsieur Lange. Motivo: pasar el hilo a Cine de reestreno.
Desconfiad de las personas que nunca ríen, no son personas serias. (Julio César)

ciberyago
 
Mensajes: 2614
Registrado: 20 Oct 2012 07:26
Agradecido : 1 vez
Agradecimiento recibido: 460 veces

Re: Lo svitato (Carlo Lizzani, 1956) DVDRip VOSE

Mensaje por ciberyago » 04 May 2021 07:38

Muchas gracias

Avatar de Usuario
Guiller3
 
Mensajes: 944
Registrado: 12 May 2013 03:58
Ubicación: Si eres mujer, búscame en tu corazón. Si eres hombre, me hallarás en tu cabeza.
Agradecido : 386 veces
Agradecimiento recibido: 596 veces

Re: Lo svitato (Carlo Lizzani, 1956) DVDRip VOSE

Mensaje por Guiller3 » 04 May 2021 17:26

Nadie imaginaba, en 1956, que cuatro décadas después, ese "feo" actor, pero, maravilloso personaje llamado Dario Fo, iba a ser premio Nobel de Literatura. Casado con la también actriz y co-escritora de algunas de sus obras, Franca Rame (desde 1954), fundarían una compañía teatral con la que montaron numerosos espectáculos de la llamada Comedia del Arte.

¡Que gran ocasión la de poder verlos como actores de cine!

Gran aporte, jotarapidup!

Avatar de Usuario
tonapar1
 
Mensajes: 5651
Registrado: 16 Oct 2012 20:19
Agradecido : 1124 veces
Agradecimiento recibido: 1950 veces

Re: Lo svitato (Carlo Lizzani, 1956) DVDRip VOSE

Mensaje por tonapar1 » 04 May 2021 21:27

Muchas gracias por el ripeo y los subs a jotarapidup, vozidar y carnicerito. Un saludo a todos ellos.

Responder

Volver a “Cine de Reestreno”